  0
SECTION
  2
HEADER
  9
$ACADVER
  1
AC1015
  9
$ACADMAINTVER
 70
     6
  9
$DWGCODEPAGE
  3
ANSI_1252
  9
$INSBASE
 10
0.0
 20
0.0
 30
0.0
  9
$EXTMIN
 10
-210.0000000000001
 20
0.0
 30
0.0
  9
$EXTMAX
 10
0.0
 20
297.0000000000001
 30
0.0
  9
$LIMMIN
 10
0.0
 20
0.0
  9
$LIMMAX
 10
12.0
 20
9.0
  9
$ORTHOMODE
 70
     0
  9
$REGENMODE
 70
     1
  9
$FILLMODE
 70
     1
  9
$QTEXTMODE
 70
     0
  9
$MIRRTEXT
 70
     1
  9
$LTSCALE
 40
1.0
  9
$ATTMODE
 70
     1
  9
$TEXTSIZE
 40
0.2
  9
$TRACEWID
 40
0.05
  9
$TEXTSTYLE
  7
Standard
  9
$CLAYER
  8
0
  9
$CELTYPE
  6
ByLayer
  9
$CECOLOR
 62
   256
  9
$CELTSCALE
 40
1.0
  9
$DISPSILH
 70
     0
  9
$DIMSCALE
 40
1.0
  9
$DIMASZ
 40
0.18
  9
$DIMEXO
 40
0.0625
  9
$DIMDLI
 40
0.38
  9
$DIMRND
 40
0.0
  9
$DIMDLE
 40
0.0
  9
$DIMEXE
 40
0.18
  9
$DIMTP
 40
0.0
  9
$DIMTM
 40
0.0
  9
$DIMTXT
 40
0.18
  9
$DIMCEN
 40
0.09
  9
$DIMTSZ
 40
0.0
  9
$DIMTOL
 70
     0
  9
$DIMLIM
 70
     0
  9
$DIMTIH
 70
     1
  9
$DIMTOH
 70
     1
  9
$DIMSE1
 70
     0
  9
$DIMSE2
 70
     0
  9
$DIMTAD
 70
     0
  9
$DIMZIN
 70
     0
  9
$DIMBLK
  1

  9
$DIMASO
 70
     1
  9
$DIMSHO
 70
     1
  9
$DIMPOST
  1

  9
$DIMAPOST
  1

  9
$DIMALT
 70
     0
  9
$DIMALTD
 70
     2
  9
$DIMALTF
 40
25.4
  9
$DIMLFAC
 40
1.0
  9
$DIMTOFL
 70
     0
  9
$DIMTVP
 40
0.0
  9
$DIMTIX
 70
     0
  9
$DIMSOXD
 70
     0
  9
$DIMSAH
 70
     0
  9
$DIMBLK1
  1

  9
$DIMBLK2
  1

  9
$DIMSTYLE
  2
Standard
  9
$DIMCLRD
 70
     0
  9
$DIMCLRE
 70
     0
  9
$DIMCLRT
 70
     0
  9
$DIMTFAC
 40
1.0
  9
$DIMGAP
 40
0.09
  9
$DIMJUST
 70
     0
  9
$DIMSD1
 70
     0
  9
$DIMSD2
 70
     0
  9
$DIMTOLJ
 70
     1
  9
$DIMTZIN
 70
     0
  9
$DIMALTZ
 70
     0
  9
$DIMALTTZ
 70
     0
  9
$DIMUPT
 70
     0
  9
$DIMDEC
 70
     4
  9
$DIMTDEC
 70
     4
  9
$DIMALTU
 70
     2
  9
$DIMALTTD
 70
     2
  9
$DIMTXSTY
  7
Standard
  9
$DIMAUNIT
 70
     0
  9
$DIMADEC
 70
     0
  9
$DIMALTRND
 40
0.0
  9
$DIMAZIN
 70
     0
  9
$DIMDSEP
 70
    46
  9
$DIMATFIT
 70
     3
  9
$DIMFRAC
 70
     0
  9
$DIMLDRBLK
  1

  9
$DIMLUNIT
 70
     2
  9
$DIMLWD
 70
    -2
  9
$DIMLWE
 70
    -2
  9
$DIMTMOVE
 70
     0
  9
$LUNITS
 70
     2
  9
$LUPREC
 70
     4
  9
$SKETCHINC
 40
0.1
  9
$FILLETRAD
 40
0.5
  9
$AUNITS
 70
     0
  9
$AUPREC
 70
     0
  9
$MENU
  1
.
  9
$ELEVATION
 40
0.0
  9
$PELEVATION
 40
0.0
  9
$THICKNESS
 40
0.0
  9
$LIMCHECK
 70
     0
  9
$CHAMFERA
 40
0.5
  9
$CHAMFERB
 40
0.5
  9
$CHAMFERC
 40
1.0
  9
$CHAMFERD
 40
0.0
  9
$SKPOLY
 70
     0
  9
$TDCREATE
 40
2456997.491218704
  9
$TDUCREATE
 40
2456997.449552037
  9
$TDUPDATE
 40
2456997.491219062
  9
$TDUUPDATE
 40
2456997.449552396
  9
$TDINDWG
 40
0.0000000116
  9
$TDUSRTIMER
 40
0.0000000116
  9
$USRTIMER
 70
     1
  9
$ANGBASE
 50
0.0
  9
$ANGDIR
 70
     0
  9
$PDMODE
 70
     0
  9
$PDSIZE
 40
0.0
  9
$PLINEWID
 40
0.0
  9
$SPLFRAME
 70
     0
  9
$SPLINETYPE
 70
     6
  9
$SPLINESEGS
 70
     8
  9
$HANDSEED
  5
37E
  9
$SURFTAB1
 70
     6
  9
$SURFTAB2
 70
     6
  9
$SURFTYPE
 70
     6
  9
$SURFU
 70
     6
  9
$SURFV
 70
     6
  9
$UCSBASE
  2

  9
$UCSNAME
  2

  9
$UCSORG
 10
0.0
 20
0.0
 30
0.0
  9
$UCSXDIR
 10
1.0
 20
0.0
 30
0.0
  9
$UCSYDIR
 10
0.0
 20
1.0
 30
0.0
  9
$UCSORTHOREF
  2

  9
$UCSORTHOVIEW
 70
     0
  9
$UCSORGTOP
 10
0.0
 20
0.0
 30
0.0
  9
$UCSORGBOTTOM
 10
0.0
 20
0.0
 30
0.0
  9
$UCSORGLEFT
 10
0.0
 20
0.0
 30
0.0
  9
$UCSORGRIGHT
 10
0.0
 20
0.0
 30
0.0
  9
$UCSORGFRONT
 10
0.0
 20
0.0
 30
0.0
  9
$UCSORGBACK
 10
0.0
 20
0.0
 30
0.0
  9
$PUCSBASE
  2

  9
$PUCSNAME
  2

  9
$PUCSORG
 10
0.0
 20
0.0
 30
0.0
  9
$PUCSXDIR
 10
1.0
 20
0.0
 30
0.0
  9
$PUCSYDIR
 10
0.0
 20
1.0
 30
0.0
  9
$PUCSORTHOREF
  2

  9
$PUCSORTHOVIEW
 70
     0
  9
$PUCSORGTOP
 10
0.0
 20
0.0
 30
0.0
  9
$PUCSORGBOTTOM
 10
0.0
 20
0.0
 30
0.0
  9
$PUCSORGLEFT
 10
0.0
 20
0.0
 30
0.0
  9
$PUCSORGRIGHT
 10
0.0
 20
0.0
 30
0.0
  9
$PUCSORGFRONT
 10
0.0
 20
0.0
 30
0.0
  9
$PUCSORGBACK
 10
0.0
 20
0.0
 30
0.0
  9
$USERI1
 70
     0
  9
$USERI2
 70
     0
  9
$USERI3
 70
     0
  9
$USERI4
 70
     0
  9
$USERI5
 70
     0
  9
$USERR1
 40
18.1
  9
$USERR2
 40
0.0
  9
$USERR3
 40
0.0
  9
$USERR4
 40
0.0
  9
$USERR5
 40
0.0
  9
$WORLDVIEW
 70
     1
  9
$SHADEDGE
 70
     3
  9
$SHADEDIF
 70
    70
  9
$TILEMODE
 70
     1
  9
$MAXACTVP
 70
    64
  9
$PINSBASE
 10
0.0
 20
0.0
 30
0.0
  9
$PLIMCHECK
 70
     0
  9
$PEXTMIN
 10
1.00000000000000E+20
 20
1.00000000000000E+20
 30
1.00000000000000E+20
  9
$PEXTMAX
 10
-1.00000000000000E+20
 20
-1.00000000000000E+20
 30
-1.00000000000000E+20
  9
$PLIMMIN
 10
0.0
 20
0.0
  9
$PLIMMAX
 10
12.0
 20
9.0
  9
$UNITMODE
 70
     0
  9
$VISRETAIN
 70
     1
  9
$PLINEGEN
 70
     0
  9
$PSLTSCALE
 70
     1
  9
$TREEDEPTH
 70
  3020
  9
$CMLSTYLE
  2
Standard
  9
$CMLJUST
 70
     0
  9
$CMLSCALE
 40
1.0
  9
$PROXYGRAPHICS
 70
     1
  9
$MEASUREMENT
 70
     1
  9
$CELWEIGHT
370
    -1
  9
$ENDCAPS
280
     0
  9
$JOINSTYLE
280
     0
  9
$LWDISPLAY
290
     0
  9
$INSUNITS
 70
     4
  9
$HYPERLINKBASE
  1

  9
$STYLESHEET
  1

  9
$XEDIT
290
     1
  9
$CEPSNTYPE
380
     0
  9
$PSTYLEMODE
290
     1
  9
$FINGERPRINTGUID
  2
{9EDECE8B-CDA0-49FB-A694-9FF02D678238}
  9
$VERSIONGUID
  2
{FAEB1C32-E019-11D5-929B-00C0DF256EC4}
  9
$EXTNAMES
290
     1
  9
$PSVPSCALE
 40
0.0
  9
$OLESTARTUP
290
     0
  0
ENDSEC
  0
SECTION
  2
CLASSES
  0
CLASS
  1
ACDBDICTIONARYWDFLT
  2
AcDbDictionaryWithDefault
  3
ObjectDBX Classes
 90
        0
280
     0
281
     0
  0
CLASS
  1
VISUALSTYLE
  2
AcDbVisualStyle
  3
ObjectDBX Classes
 90
     4095
280
     0
281
     0
  0
CLASS
  1
MATERIAL
  2
AcDbMaterial
  3
ObjectDBX Classes
 90
     1153
280
     0
281
     0
  0
CLASS
  1
DICTIONARYVAR
  2
AcDbDictionaryVar
  3
ObjectDBX Classes
 90
        0
280
     0
281
     0
  0
CLASS
  1
ACDBPLACEHOLDER
  2
AcDbPlaceHolder
  3
ObjectDBX Classes
 90
        0
280
     0
281
     0
  0
CLASS
  1
LAYOUT
  2
AcDbLayout
  3
ObjectDBX Classes
 90
        0
280
     0
281
     0
  0
ENDSEC
  0
SECTION
  2
TABLES
  0
TABLE
  2
VPORT
  5
8
330
0
100
AcDbSymbolTable
 70
     1
  0
VPORT
  5
29
330
8
100
AcDbSymbolTableRecord
100
AcDbViewportTableRecord
  2
*Active
 70
     0
 10
0.0
 20
0.0
 11
1.0
 21
1.0
 12
-105.0000000000001
 22
148.5000000000001
 13
0.0
 23
0.0
 14
0.5
 24
0.5
 15
0.5
 25
0.5
 16
0.0
 26
0.0
 36
1.0
 17
0.0
 27
0.0
 37
0.0
 40
326.7000000000002
 41
1.60267857142857
 42
50.0
 43
0.0
 44
0.0
 50
0.0
 51
0.0
 71
     0
 72
   100
 73
     1
 74
     3
 75
     0
 76
     0
 77
     0
 78
     0
281
     0
 65
     1
110
0.0
120
0.0
130
0.0
111
1.0
121
0.0
131
0.0
112
0.0
122
1.0
132
0.0
 79
     0
146
0.0
  0
ENDTAB
  0
TABLE
  2
LTYPE
  5
5
330
0
100
AcDbSymbolTable
 70
     8
  0
LTYPE
  5
14
330
5
100
AcDbSymbolTableRecord
100
AcDbLinetypeTableRecord
  2
ByBlock
 70
     0
  3

 72
    65
 73
     0
 40
0.0
  0
LTYPE
  5
15
330
5
100
AcDbSymbolTableRecord
100
AcDbLinetypeTableRecord
  2
ByLayer
 70
     0
  3

 72
    65
 73
     0
 40
0.0
  0
LTYPE
  5
16
330
5
100
AcDbSymbolTableRecord
100
AcDbLinetypeTableRecord
  2
Continuous
 70
     0
  3
Solid line
 72
    65
 73
     0
 40
0.0
  0
LTYPE
  5
3F
330
5
100
AcDbSymbolTableRecord
100
AcDbLinetypeTableRecord
  2
DASHED
 70
     0
  3
Dashed
 72
    65
 73
     2
 40
15.0
 49
7.0
 74
     0
 49
-8.0
 74
     0
  0
LTYPE
  5
40
330
5
100
AcDbSymbolTableRecord
100
AcDbLinetypeTableRecord
  2
DOTTED
 70
     0
  3
Dotted
 72
    65
 73
     2
 40
1.0
 49
0.0
 74
     0
 49
-1.0
 74
     0
  0
LTYPE
  5
41
330
5
100
AcDbSymbolTableRecord
100
AcDbLinetypeTableRecord
  2
DOT_CENTER
 70
     0
  3
Dot_Center
 72
    65
 73
     4
 40
14.0
 49
12.0
 74
     0
 49
-1.0
 74
     0
 49
0.0
 74
     0
 49
-1.0
 74
     0
  0
LTYPE
  5
42
330
5
100
AcDbSymbolTableRecord
100
AcDbLinetypeTableRecord
  2
LONG_DASHED
 70
     0
  3
Long_Dashed
 72
    65
 73
     2
 40
15.0
 49
10.0
 74
     0
 49
-5.0
 74
     0
  0
LTYPE
  5
43
330
5
100
AcDbSymbolTableRecord
100
AcDbLinetypeTableRecord
  2
DASH_CENTER
 70
     0
  3
Dash_Center
 72
    65
 73
     4
 40
14.0
 49
11.0
 74
     0
 49
-1.0
 74
     0
 49
1.0
 74
     0
 49
-1.0
 74
     0
  0
LTYPE
  5
44
330
5
100
AcDbSymbolTableRecord
100
AcDbLinetypeTableRecord
  2
PHANTOM
 70
     0
  3
Phantom
 72
    65
 73
     6
 40
13.0
 49
10.0
 74
     0
 49
-1.0
 74
     0
 49
0.0
 74
     0
 49
-1.0
 74
     0
 49
0.0
 74
     0
 49
-1.0
 74
     0
  0
LTYPE
  5
45
330
5
100
AcDbSymbolTableRecord
100
AcDbLinetypeTableRecord
  2
CENTER_DASH_DASH
 70
     0
  3
Center_Dash_Dash
 72
    65
 73
     6
 40
14.0
 49
9.0
 74
     0
 49
-1.0
 74
     0
 49
1.0
 74
     0
 49
-1.0
 74
     0
 49
1.0
 74
     0
 49
-1.0
 74
     0
  0
ENDTAB
  0
TABLE
  2
LAYER
  5
2
330
0
100
AcDbSymbolTable
 70
     2
  0
LAYER
  5
10
330
2
100
AcDbSymbolTableRecord
100
AcDbLayerTableRecord
  2
0
 70
     0
 62
     7
  6
Continuous
370
    -3
390
F
  0
LAYER
  5
46
330
2
100
AcDbSymbolTableRecord
100
AcDbLayerTableRecord
  2
1
 70
     0
 62
     7
  6
Continuous
370
    -3
390
F
  0
ENDTAB
  0
TABLE
  2
STYLE
  5
3
330
0
100
AcDbSymbolTable
 70
     5
  0
STYLE
  5
11
330
3
100
AcDbSymbolTableRecord
100
AcDbTextStyleTableRecord
  2
Standard
 70
     0
 40
0.0
 41
1.0
 50
0.0
 71
     0
 42
0.2
  3
txt
  4

  0
STYLE
  5
308
330
3
100
AcDbSymbolTableRecord
100
AcDbTextStyleTableRecord
  2
CONVERTER_11
 70
     0
 40
0.0
 41
0.95
 50
0.0
 71
     0
 42
0.2
  3
simplex.shx
  4

  0
STYLE
  5
30F
330
3
100
AcDbSymbolTableRecord
100
AcDbTextStyleTableRecord
  2
CONVERTER_12
 70
     0
 40
0.0
 41
0.855
 50
0.0
 71
     0
 42
0.2
  3
simplex.shx
  4

  0
STYLE
  5
324
330
3
100
AcDbSymbolTableRecord
100
AcDbTextStyleTableRecord
  2
CONVERTER_13
 70
     0
 40
0.0
 41
1.2
 50
0.0
 71
     0
 42
0.2
  3
ARIAL.TTF
  4

  0
STYLE
  5
32C
330
3
100
AcDbSymbolTableRecord
100
AcDbTextStyleTableRecord
  2
CONVERTER_14
 70
     0
 40
0.0
 41
1.44
 50
0.0
 71
     0
 42
0.2
  3
ARIAL.TTF
  4

  0
ENDTAB
  0
TABLE
  2
VIEW
  5
6
330
0
100
AcDbSymbolTable
 70
     0
  0
ENDTAB
  0
TABLE
  2
UCS
  5
7
330
0
100
AcDbSymbolTable
 70
     0
  0
ENDTAB
  0
TABLE
  2
APPID
  5
9
330
0
100
AcDbSymbolTable
 70
     1
  0
APPID
  5
12
330
9
100
AcDbSymbolTableRecord
100
AcDbRegAppTableRecord
  2
ACAD
 70
     0
  0
ENDTAB
  0
TABLE
  2
DIMSTYLE
  5
A
330
0
100
AcDbSymbolTable
 70
     4
100
AcDbDimStyleTable
  0
DIMSTYLE
105
27
330
A
100
AcDbSymbolTableRecord
100
AcDbDimStyleTableRecord
  2
Standard
 70
     0
178
     0
340
11
  0
DIMSTYLE
105
337
102
{ACAD_REACTORS
330
338
102
}
330
A
100
AcDbSymbolTableRecord
100
AcDbDimStyleTableRecord
  2
ME10_DIM_10
 70
     0
 41
3.0
 42
0.5
 44
1.0
 73
     0
 74
     0
 77
     1
 78
     8
140
3.0
147
2.0
172
     1
173
     1
174
     1
175
     1
176
     2
177
     2
271
     2
178
     4
271
     2
340
308
  0
DIMSTYLE
105
342
102
{ACAD_REACTORS
330
343
102
}
330
A
100
AcDbSymbolTableRecord
100
AcDbDimStyleTableRecord
  2
ME10_DIM_11
 70
     0
 41
3.0
 42
0.5
 44
1.0
 73
     0
 74
     0
 77
     1
 78
     8
140
3.0
147
2.0
172
     1
173
     1
174
     1
175
     1
176
     2
177
     2
271
     2
178
     4
271
     2
340
308
  0
DIMSTYLE
105
34D
102
{ACAD_REACTORS
330
34E
102
}
330
A
100
AcDbSymbolTableRecord
100
AcDbDimStyleTableRecord
  2
ME10_DIM_12
 70
     0
 41
3.0
 42
0.5
 44
1.0
 73
     0
 74
     0
 77
     1
 78
     8
140
3.0
147
2.0
172
     1
173
     1
174
     1
175
     1
176
     2
177
     2
271
     2
178
     4
271
     2
340
308
  0
ENDTAB
  0
TABLE
  2
BLOCK_RECORD
  5
1
330
0
100
AcDbSymbolTable
 70
     4
  0
BLOCK_RECORD
  5
1F
330
1
100
AcDbSymbolTableRecord
100
AcDbBlockTableRecord
  2
*Model_Space
340
22
  0
BLOCK_RECORD
  5
1B
330
1
100
AcDbSymbolTableRecord
100
AcDbBlockTableRecord
  2
*Paper_Space
340
1E
  0
BLOCK_RECORD
  5
23
330
1
100
AcDbSymbolTableRecord
100
AcDbBlockTableRecord
  2
*Paper_Space0
340
26
  0
BLOCK_RECORD
  5
32E
330
1
100
AcDbSymbolTableRecord
100
AcDbBlockTableRecord
  2
*D1
340
0
  0
BLOCK_RECORD
  5
339
330
1
100
AcDbSymbolTableRecord
100
AcDbBlockTableRecord
  2
*D2
340
0
  0
BLOCK_RECORD
  5
344
330
1
100
AcDbSymbolTableRecord
100
AcDbBlockTableRecord
  2
*D3
340
0
  0
ENDTAB
  0
ENDSEC
  0
SECTION
  2
BLOCKS
  0
BLOCK
  5
20
330
1F
100
AcDbEntity
  8
0
100
AcDbBlockBegin
  2
*Model_Space
 70
     0
 10
0.0
 20
0.0
 30
0.0
  3
*Model_Space
  1

  0
ENDBLK
  5
21
330
1F
100
AcDbEntity
  8
0
100
AcDbBlockEnd
  0
BLOCK
  5
1C
330
1B
100
AcDbEntity
 67
     1
  8
0
100
AcDbBlockBegin
  2
*Paper_Space
 70
     0
 10
0.0
 20
0.0
 30
0.0
  3
*Paper_Space
  1

  0
ENDBLK
  5
1D
330
1B
100
AcDbEntity
 67
     1
  8
0
100
AcDbBlockEnd
  0
BLOCK
  5
24
330
23
100
AcDbEntity
  8
0
100
AcDbBlockBegin
  2
*Paper_Space0
 70
     0
 10
0.0
 20
0.0
 30
0.0
  3
*Paper_Space0
  1

  0
ENDBLK
  5
25
330
23
100
AcDbEntity
  8
0
100
AcDbBlockEnd
  0
BLOCK
  5
335
330
32E
100
AcDbEntity
  8
0
100
AcDbBlockBegin
  2
*D1
 70
     1
 10
0.0
 20
0.0
 30
0.0
  3
*D1
  1

  0
LINE
  5
32F
330
32E
100
AcDbEntity
  8
1
  6
Continuous
 62
     2
100
AcDbLine
 10
-114.4567917904763
 20
194.4932072263986
 30
0.0
 11
-143.8567917904764
 21
194.4932072263986
 31
0.0
  0
LINE
  5
330
330
32E
100
AcDbEntity
  8
1
  6
Continuous
 62
     2
100
AcDbLine
 10
-114.4567917904763
 20
185.0073320447403
 30
0.0
 11
-114.4567917904763
 21
195.4932072263986
 31
0.0
  0
LINE
  5
331
330
32E
100
AcDbEntity
  8
1
  6
Continuous
 62
     2
100
AcDbLine
 10
-143.8567917904764
 20
185.0073320447403
 30
0.0
 11
-143.8567917904764
 21
195.4932072263986
 31
0.0
  0
SOLID
  5
332
330
32E
100
AcDbEntity
  8
1
 62
     2
100
AcDbTrace
 10
-117.4567917904763
 20
194.0982497336364
 30
0.0
 11
-117.4567917904763
 21
194.8881647191608
 31
0.0
 12
-114.4567917904763
 22
194.4932072263986
 32
0.0
 13
-114.4567917904763
 23
194.4932072263986
 33
0.0
  0
SOLID
  5
333
330
32E
100
AcDbEntity
  8
1
 62
     2
100
AcDbTrace
 10
-140.8567917904764
 20
194.8881647191608
 30
0.0
 11
-140.8567917904764
 21
194.0982497336364
 31
0.0
 12
-143.8567917904764
 22
194.4932072263986
 32
0.0
 13
-143.8567917904764
 23
194.4932072263986
 33
0.0
  0
MTEXT
  5
334
330
32E
100
AcDbEntity
  8
1
 62
     4
100
AcDbMText
 10
-133.2817917904764
 20
196.7932072263986
 30
0.0
 40
3.0
 41
0.0
 71
     7
 72
     1
  1
29,4
  7
CONVERTER_11
 11
0.9999999999970619
 21
2.424068405545306E-6
 31
0.0
 73
     1
 44
0.60024009603842
  0
ENDBLK
  5
336
330
32E
100
AcDbEntity
  8
0
100
AcDbBlockEnd
  0
BLOCK
  5
340
330
339
100
AcDbEntity
  8
0
100
AcDbBlockBegin
  2
*D2
 70
     1
 10
0.0
 20
0.0
 30
0.0
  3
*D2
  1

  0
LINE
  5
33A
330
339
100
AcDbEntity
  8
1
  6
Continuous
 62
     2
100
AcDbLine
 10
-79.55737180990829
 20
194.5388779313006
 30
0.0
 11
-49.55737180990823
 21
194.5388779313006
 31
0.0
  0
LINE
  5
33B
330
339
100
AcDbEntity
  8
1
  6
Continuous
 62
     2
100
AcDbLine
 10
-79.55737180990829
 20
185.0073320447403
 30
0.0
 11
-79.55737180990829
 21
195.5388779313006
 31
0.0
  0
LINE
  5
33C
330
339
100
AcDbEntity
  8
1
  6
Continuous
 62
     2
100
AcDbLine
 10
-49.55737180990823
 20
185.0073320447403
 30
0.0
 11
-49.55737180990823
 21
195.5388779313006
 31
0.0
  0
SOLID
  5
33D
330
339
100
AcDbEntity
  8
1
 62
     2
100
AcDbTrace
 10
-76.55737180990829
 20
194.9338354240628
 30
0.0
 11
-76.55737180990829
 21
194.1439204385384
 31
0.0
 12
-79.55737180990829
 22
194.5388779313006
 32
0.0
 13
-79.55737180990829
 23
194.5388779313006
 33
0.0
  0
SOLID
  5
33E
330
339
100
AcDbEntity
  8
1
 62
     2
100
AcDbTrace
 10
-52.55737180990823
 20
194.1439204385384
 30
0.0
 11
-52.55737180990823
 21
194.9338354240628
 31
0.0
 12
-49.55737180990823
 22
194.5388779313006
 32
0.0
 13
-49.55737180990823
 23
194.5388779313006
 33
0.0
  0
MTEXT
  5
33F
330
339
100
AcDbEntity
  8
1
 62
     4
100
AcDbMText
 10
-66.80737180990828
 20
196.5388779313006
 30
0.0
 40
3.0
 41
0.0
 71
     7
 72
     1
  1
30
  7
CONVERTER_11
 11
0.9999999999970619
 21
2.424068405545306E-6
 31
0.0
 73
     1
 44
0.60024009603842
  0
ENDBLK
  5
341
330
339
100
AcDbEntity
  8
0
100
AcDbBlockEnd
  0
BLOCK
  5
34B
330
344
100
AcDbEntity
  8
0
100
AcDbBlockBegin
  2
*D3
 70
     1
 10
0.0
 20
0.0
 30
0.0
  3
*D3
  1

  0
LINE
  5
345
330
344
100
AcDbEntity
  8
1
  6
Continuous
 62
     2
100
AcDbLine
 10
-35.70868594021931
 20
184.5073320447403
 30
0.0
 11
-35.70868594021931
 21
146.5073320447403
 31
0.0
  0
LINE
  5
346
330
344
100
AcDbEntity
  8
1
  6
Continuous
 62
     2
100
AcDbLine
 10
-49.85737180990827
 20
184.5073320447403
 30
0.0
 11
-34.70868594021931
 21
184.5073320447403
 31
0.0
  0
LINE
  5
347
330
344
100
AcDbEntity
  8
1
  6
Continuous
 62
     2
100
AcDbLine
 10
-49.05737180990826
 20
146.5073320447403
 30
0.0
 11
-34.70868594021931
 21
146.5073320447403
 31
0.0
  0
SOLID
  5
348
330
344
100
AcDbEntity
  8
1
 62
     2
100
AcDbTrace
 10
-35.31372844745712
 20
181.5073320447403
 30
0.0
 11
-36.1036434329815
 21
181.5073320447403
 31
0.0
 12
-35.70868594021931
 22
184.5073320447403
 32
0.0
 13
-35.70868594021931
 23
184.5073320447403
 33
0.0
  0
SOLID
  5
349
330
344
100
AcDbEntity
  8
1
 62
     2
100
AcDbTrace
 10
-36.1036434329815
 20
149.5073320447403
 30
0.0
 11
-35.31372844745712
 21
149.5073320447403
 31
0.0
 12
-35.70868594021931
 22
146.5073320447403
 32
0.0
 13
-35.70868594021931
 23
146.5073320447403
 33
0.0
  0
MTEXT
  5
34A
330
344
100
AcDbEntity
  8
1
 62
     4
100
AcDbMText
 10
-37.70868594021931
 20
163.2573320447403
 30
0.0
 40
3.0
 41
0.0
 71
     7
 72
     1
  1
38
  7
CONVERTER_11
 11
0.0
 21
1.0
 31
0.0
 73
     1
 44
0.60024009603842
  0
ENDBLK
  5
34C
330
344
100
AcDbEntity
  8
0
100
AcDbBlockEnd
  0
ENDSEC
  0
SECTION
  2
ENTITIES
  0
LINE
  5
47
330
1F
100
AcDbEntity
  8
1
  6
Continuous
 62
     7
100
AcDbLine
 10
-76.55737180990822
 20
180.5073320447403
 30
0.0
 11
-72.55737180990822
 21
180.5073320447403
 31
0.0
  0
LINE
  5
48
330
1F
100
AcDbEntity
  8
1
  6
Continuous
 62
     7
100
AcDbLine
 10
-56.38333455076003
 20
180.5073320447403
 30
0.0
 11
-52.55737180990823
 21
180.5073320447403
 31
0.0
  0
LINE
  5
49
330
1F
100
AcDbEntity
  8
1
  6
Continuous
 62
     7
100
AcDbLine
 10
-52.55737180990823
 20
180.5073320447403
 30
0.0
 11
-52.55737180990823
 21
170.5073320447403
 31
0.0
  0
LINE
  5
4A
330
1F
100
AcDbEntity
  8
1
  6
Continuous
 62
     7
100
AcDbLine
 10
-56.55737180990823
 20
170.5073320447403
 30
0.0
 11
-52.55737180990823
 21
170.5073320447403
 31
0.0
  0
LINE
  5
4B
330
1F
100
AcDbEntity
  8
1
  6
Continuous
 62
     7
100
AcDbLine
 10
-72.55737180990822
 20
180.5073320447403
 30
0.0
 11
-72.55737180990822
 21
170.5073320447403
 31
0.0
  0
LINE
  5
4C
330
1F
100
AcDbEntity
  8
1
  6
Continuous
 62
     7
100
AcDbLine
 10
-76.55737180990822
 20
170.5073320447403
 30
0.0
 11
-72.55737180990822
 21
170.5073320447403
 31
0.0
  0
LINE
  5
4D
330
1F
100
AcDbEntity
  8
0
  6
Continuous
 62
     7
100
AcDbLine
 10
-70.30737180990822
 20
168.3573320447403
 30
0.0
 11
-58.80737180990823
 21
168.3573320447403
 31
0.0
  0
LINE
  5
4E
330
1F
100
AcDbEntity
  8
0
  6
Continuous
 62
     7
100
AcDbLine
 10
-67.30737180990822
 20
171.3573320447403
 30
0.0
 11
-61.80737180990823
 21
171.3573320447403
 31
0.0
  0
LINE
  5
4F
330
1F
100
AcDbEntity
  8
0
  6
Continuous
 62
     7
100
AcDbLine
 10
-78.70737180990832
 20
184.5073320447403
 30
0.0
 11
-78.62737180990823
 21
184.5073320447403
 31
0.0
  0
LINE
  5
50
330
1F
100
AcDbEntity
  8
0
  6
Continuous
 62
     7
100
AcDbLine
 10
-78.75737180990822
 20
184.5073320447403
 30
0.0
 11
-78.70737180990832
 21
184.5073320447403
 31
0.0
  0
LINE
  5
51
330
1F
100
AcDbEntity
  8
0
  6
Continuous
 62
     7
100
AcDbLine
 10
-78.55737180990822
 20
184.5073320447403
 30
0.0
 11
-78.45737180990832
 21
184.5073320447403
 31
0.0
  0
LINE
  5
52
330
1F
100
AcDbEntity
  8
0
  6
Continuous
 62
     7
100
AcDbLine
 10
-78.62737180990823
 20
184.5073320447403
 30
0.0
 11
-78.55737180990822
 21
184.5073320447403
 31
0.0
  0
LINE
  5
53
330
1F
100
AcDbEntity
  8
0
  6
Continuous
 62
     7
100
AcDbLine
 10
-78.45737180990832
 20
184.5073320447403
 30
0.0
 11
-76.55737180990822
 21
184.5073320447403
 31
0.0
  0
LINE
  5
54
330
1F
100
AcDbEntity
  8
0
  6
Continuous
 62
     7
100
AcDbLine
 10
-61.80737180990823
 20
171.3573320447403
 30
0.0
 11
-61.80737180990823
 21
180.5073320447403
 31
0.0
  0
LINE
  5
55
330
1F
100
AcDbEntity
  8
0
  6
Continuous
 62
     7
100
AcDbLine
 10
-58.80737180990823
 20
180.5073320447403
 30
0.0
 11
-58.80737180990823
 21
168.3573320447403
 31
0.0
  0
LINE
  5
56
330
1F
100
AcDbEntity
  8
0
  6
Continuous
 62
     7
100
AcDbLine
 10
-56.55181134661433
 20
180.5073320447403
 30
0.0
 11
-56.38333455076003
 21
180.5073320447403
 31
0.0
  0
LINE
  5
57
330
1F
100
AcDbEntity
  8
0
  6
Continuous
 62
     7
100
AcDbLine
 10
-56.55737180990823
 20
180.5073320447403
 30
0.0
 11
-56.55181134661433
 21
180.5073320447403
 31
0.0
  0
LINE
  5
58
330
1F
100
AcDbEntity
  8
0
  6
Continuous
 62
     7
100
AcDbLine
 10
-56.59627679289122
 20
180.5073320447403
 30
0.0
 11
-57.10737180990833
 21
180.5073320447403
 31
0.0
  0
LINE
  5
59
330
1F
100
AcDbEntity
  8
0
  6
Continuous
 62
     7
100
AcDbLine
 10
-56.55737180990823
 20
180.5073320447403
 30
0.0
 11
-56.59627679289122
 21
180.5073320447403
 31
0.0
  0
LINE
  5
5A
330
1F
100
AcDbEntity
  8
0
  6
Continuous
 62
     7
100
AcDbLine
 10
-57.10737180990833
 20
180.5073320447403
 30
0.0
 11
-58.10737180990833
 21
180.5073320447403
 31
0.0
  0
LINE
  5
5B
330
1F
100
AcDbEntity
  8
0
  6
Continuous
 62
     7
100
AcDbLine
 10
-58.10737180990833
 20
180.5073320447403
 30
0.0
 11
-58.30737180990823
 21
180.5073320447403
 31
0.0
  0
LINE
  5
5C
330
1F
100
AcDbEntity
  8
0
  6
Continuous
 62
     7
100
AcDbLine
 10
-62.38583277899093
 20
180.5073320447403
 30
0.0
 11
-63.45181134661434
 21
180.5073320447403
 31
0.0
  0
LINE
  5
5D
330
1F
100
AcDbEntity
  8
0
  6
Continuous
 62
     7
100
AcDbLine
 10
-61.80737180990823
 20
180.5073320447403
 30
0.0
 11
-61.87182059462452
 21
180.5073320447403
 31
0.0
  0
LINE
  5
5E
330
1F
100
AcDbEntity
  8
0
  6
Continuous
 62
     7
100
AcDbLine
 10
-61.87182059462452
 20
180.5073320447403
 30
0.0
 11
-62.38583277899093
 21
180.5073320447403
 31
0.0
  0
LINE
  5
5F
330
1F
100
AcDbEntity
  8
0
  6
Continuous
 62
     7
100
AcDbLine
 10
-63.45181134661434
 20
180.5073320447403
 30
0.0
 11
-63.49627679289122
 21
180.5073320447403
 31
0.0
  0
LINE
  5
60
330
1F
100
AcDbEntity
  8
0
  6
Continuous
 62
     7
100
AcDbLine
 10
-58.66293227320233
 20
180.5073320447403
 30
0.0
 11
-58.80737180990823
 21
180.5073320447403
 31
0.0
  0
LINE
  5
61
330
1F
100
AcDbEntity
  8
0
  6
Continuous
 62
     7
100
AcDbLine
 10
-58.61846682692533
 20
180.5073320447403
 30
0.0
 11
-58.66293227320233
 21
180.5073320447403
 31
0.0
  0
LINE
  5
62
330
1F
100
AcDbEntity
  8
0
  6
Continuous
 62
     7
100
AcDbLine
 10
-58.30737180990823
 20
180.5073320447403
 30
0.0
 11
-58.61846682692533
 21
180.5073320447403
 31
0.0
  0
LINE
  5
63
330
1F
100
AcDbEntity
  8
0
  6
Continuous
 62
     7
100
AcDbLine
 10
-63.49627679289122
 20
180.5073320447403
 30
0.0
 11
-64.00737180990822
 21
180.5073320447403
 31
0.0
  0
LINE
  5
64
330
1F
100
AcDbEntity
  8
0
  6
Continuous
 62
     7
100
AcDbLine
 10
-70.30737180990822
 20
168.3573320447403
 30
0.0
 11
-70.30737180990822
 21
180.5073320447403
 31
0.0
  0
LINE
  5
65
330
1F
100
AcDbEntity
  8
0
  6
Continuous
 62
     7
100
AcDbLine
 10
-72.55737180990822
 20
180.5073320447403
 30
0.0
 11
-72.56293227320222
 21
180.5073320447403
 31
0.0
  0
LINE
  5
66
330
1F
100
AcDbEntity
  8
0
  6
Continuous
 62
     7
100
AcDbLine
 10
-71.00737180990822
 20
180.5073320447403
 30
0.0
 11
-72.00737180990822
 21
180.5073320447403
 31
0.0
  0
LINE
  5
67
330
1F
100
AcDbEntity
  8
0
  6
Continuous
 62
     7
100
AcDbLine
 10
-70.80737180990822
 20
180.5073320447403
 30
0.0
 11
-71.00737180990822
 21
180.5073320447403
 31
0.0
  0
LINE
  5
68
330
1F
100
AcDbEntity
  8
0
  6
Continuous
 62
     7
100
AcDbLine
 10
-72.00737180990822
 20
180.5073320447403
 30
0.0
 11
-72.51846682692532
 21
180.5073320447403
 31
0.0
  0
LINE
  5
69
330
1F
100
AcDbEntity
  8
0
  6
Continuous
 62
     7
100
AcDbLine
 10
-72.51846682692532
 20
180.5073320447403
 30
0.0
 11
-72.55737180990822
 21
180.5073320447403
 31
0.0
  0
LINE
  5
6A
330
1F
100
AcDbEntity
  8
0
  6
Continuous
 62
     7
100
AcDbLine
 10
-70.49627679289122
 20
180.5073320447403
 30
0.0
 11
-70.80737180990822
 21
180.5073320447403
 31
0.0
  0
LINE
  5
6B
330
1F
100
AcDbEntity
  8
0
  6
Continuous
 62
     7
100
AcDbLine
 10
-70.30737180990822
 20
180.5073320447403
 30
0.0
 11
-70.45181134661432
 21
180.5073320447403
 31
0.0
  0
LINE
  5
6C
330
1F
100
AcDbEntity
  8
0
  6
Continuous
 62
     7
100
AcDbLine
 10
-70.45181134661432
 20
180.5073320447403
 30
0.0
 11
-70.49627679289122
 21
180.5073320447403
 31
0.0
  0
LINE
  5
6D
330
1F
100
AcDbEntity
  8
0
  6
Continuous
 62
     7
100
AcDbLine
 10
-67.30737180990822
 20
180.5073320447403
 30
0.0
 11
-67.30737180990822
 21
171.3573320447403
 31
0.0
  0
LINE
  5
6E
330
1F
100
AcDbEntity
  8
0
  6
Continuous
 62
     7
100
AcDbLine
 10
-52.55737180990823
 20
184.5073320447403
 30
0.0
 11
-50.65737180990831
 21
184.5073320447403
 31
0.0
  0
LINE
  5
6F
330
1F
100
AcDbEntity
  8
0
  6
Continuous
 62
     7
100
AcDbLine
 10
-52.55737180990823
 20
184.5073320447403
 30
0.0
 11
-56.55737180990823
 21
184.5073320447403
 31
0.0
  0
LINE
  5
70
330
1F
100
AcDbEntity
  8
0
  6
Continuous
 62
     7
100
AcDbLine
 10
-67.24292302519203
 20
180.5073320447403
 30
0.0
 11
-67.30737180990822
 21
180.5073320447403
 31
0.0
  0
LINE
  5
71
330
1F
100
AcDbEntity
  8
0
  6
Continuous
 62
     7
100
AcDbLine
 10
-64.00737180990822
 20
180.5073320447403
 30
0.0
 11
-65.10737180990833
 21
180.5073320447403
 31
0.0
  0
LINE
  5
72
330
1F
100
AcDbEntity
  8
0
  6
Continuous
 62
     7
100
AcDbLine
 10
-65.66293227320222
 20
180.5073320447403
 30
0.0
 11
-66.72891084082562
 21
180.5073320447403
 31
0.0
  0
LINE
  5
73
330
1F
100
AcDbEntity
  8
0
  6
Continuous
 62
     7
100
AcDbLine
 10
-66.72891084082562
 20
180.5073320447403
 30
0.0
 11
-67.24292302519203
 21
180.5073320447403
 31
0.0
  0
LINE
  5
74
330
1F
100
AcDbEntity
  8
0
  6
Continuous
 62
     7
100
AcDbLine
 10
-65.61846682692533
 20
180.5073320447403
 30
0.0
 11
-65.66293227320222
 21
180.5073320447403
 31
0.0
  0
LINE
  5
75
330
1F
100
AcDbEntity
  8
0
  6
Continuous
 62
     7
100
AcDbLine
 10
-65.10737180990833
 20
180.5073320447403
 30
0.0
 11
-65.61846682692533
 21
180.5073320447403
 31
0.0
  0
LINE
  5
76
330
1F
100
AcDbEntity
  8
0
  6
Continuous
 62
     7
100
AcDbLine
 10
-61.80737180990823
 20
180.5073320447403
 30
0.0
 11
-61.80737180990823
 21
184.5073320447403
 31
0.0
  0
LINE
  5
77
330
1F
100
AcDbEntity
  8
0
  6
Continuous
 62
     7
100
AcDbLine
 10
-50.65737180990831
 20
184.5073320447403
 30
0.0
 11
-50.55737180990823
 21
184.5073320447403
 31
0.0
  0
LINE
  5
78
330
1F
100
AcDbEntity
  8
0
  6
Continuous
 62
     7
100
AcDbLine
 10
-72.55737180990832
 20
184.5073320447403
 30
0.0
 11
-76.55737180990822
 21
184.5073320447403
 31
0.0
  0
LINE
  5
79
330
1F
100
AcDbEntity
  8
0
  6
Continuous
 62
     7
100
AcDbLine
 10
-50.40737180990831
 20
184.5073320447403
 30
0.0
 11
-50.55737180990823
 21
184.5073320447403
 31
0.0
  0
LINE
  5
7A
330
1F
100
AcDbEntity
  8
0
  6
Continuous
 62
     7
100
AcDbLine
 10
-50.35737180990833
 20
184.5073320447403
 30
0.0
 11
-50.40737180990831
 21
184.5073320447403
 31
0.0
  0
LINE
  5
7B
330
1F
100
AcDbEntity
  8
0
  6
Continuous
 62
     7
100
AcDbLine
 10
-56.55737180990823
 20
184.5073320447403
 30
0.0
 11
-56.55737180990823
 21
180.5073320447403
 31
0.0
  0
LINE
  5
7C
330
1F
100
AcDbEntity
  8
0
  6
Continuous
 62
     7
100
AcDbLine
 10
-72.55737180990832
 20
184.5073320447403
 30
0.0
 11
-72.55737180990822
 21
180.5073320447403
 31
0.0
  0
LINE
  5
7D
330
1F
100
AcDbEntity
  8
0
  6
Continuous
 62
     7
100
AcDbLine
 10
-72.55737180990832
 20
184.5073320447403
 30
0.0
 11
-67.30737180990822
 21
184.5073320447403
 31
0.0
  0
LINE
  5
7E
330
1F
100
AcDbEntity
  8
0
  6
Continuous
 62
     7
100
AcDbLine
 10
-67.30737180990822
 20
184.5073320447403
 30
0.0
 11
-67.30737180990822
 21
180.5073320447403
 31
0.0
  0
LINE
  5
7F
330
1F
100
AcDbEntity
  8
0
  6
Continuous
 62
     7
100
AcDbLine
 10
-67.30737180990822
 20
184.5073320447403
 30
0.0
 11
-61.80737180990823
 21
184.5073320447403
 31
0.0
  0
LINE
  5
80
330
1F
100
AcDbEntity
  8
0
  6
Continuous
 62
     7
100
AcDbLine
 10
-61.80737180990823
 20
184.5073320447403
 30
0.0
 11
-56.55737180990823
 21
184.5073320447403
 31
0.0
  0
LINE
  5
81
330
1F
100
AcDbEntity
  8
0
  6
Continuous
 62
     7
100
AcDbLine
 10
-49.55737180990823
 20
184.5073320447403
 30
0.0
 11
-50.35737180990833
 21
184.5073320447403
 31
0.0
  0
LINE
  5
82
330
1F
100
AcDbEntity
  8
0
  6
Continuous
 62
     7
100
AcDbLine
 10
-50.35737180990833
 20
184.5073320447403
 30
0.0
 11
-50.40737180990831
 21
184.5073320447403
 31
0.0
  0
LINE
  5
83
330
1F
100
AcDbEntity
  8
0
  6
Continuous
 62
     7
100
AcDbLine
 10
-50.40737180990831
 20
184.5073320447403
 30
0.0
 11
-50.55737180990823
 21
184.5073320447403
 31
0.0
  0
LINE
  5
84
330
1F
100
AcDbEntity
  8
0
  6
Continuous
 62
     7
100
AcDbLine
 10
-79.55737180990832
 20
184.5073320447403
 30
0.0
 11
-78.75737180990822
 21
184.5073320447403
 31
0.0
  0
LINE
  5
85
330
1F
100
AcDbEntity
  8
0
  6
Continuous
 62
     7
100
AcDbLine
 10
-50.65737180990831
 20
184.5073320447403
 30
0.0
 11
-50.55737180990823
 21
184.5073320447403
 31
0.0
  0
LINE
  5
86
330
1F
100
AcDbEntity
  8
0
  6
Continuous
 62
     7
100
AcDbLine
 10
-49.55737180990823
 20
180.5073320447403
 30
0.0
 11
-47.55737180990823
 21
180.5073320447403
 31
0.0
  0
LINE
  5
87
330
1F
100
AcDbEntity
  8
0
  6
Continuous
 62
     7
100
AcDbLine
 10
-65.10737180990833
 20
180.5073320447403
 30
0.0
 11
-65.61846682692533
 21
180.5073320447403
 31
0.0
  0
LINE
  5
88
330
1F
100
AcDbEntity
  8
0
  6
Continuous
 62
     7
100
AcDbLine
 10
-65.61846682692533
 20
180.5073320447403
 30
0.0
 11
-65.66293227320222
 21
180.5073320447403
 31
0.0
  0
LINE
  5
89
330
1F
100
AcDbEntity
  8
0
  6
Continuous
 62
     7
100
AcDbLine
 10
-66.72891084082562
 20
180.5073320447403
 30
0.0
 11
-67.24292302519203
 21
180.5073320447403
 31
0.0
  0
LINE
  5
8A
330
1F
100
AcDbEntity
  8
0
  6
Continuous
 62
     7
100
AcDbLine
 10
-65.66293227320222
 20
180.5073320447403
 30
0.0
 11
-66.72891084082562
 21
180.5073320447403
 31
0.0
  0
LINE
  5
8B
330
1F
100
AcDbEntity
  8
0
  6
Continuous
 62
     7
100
AcDbLine
 10
-81.55737180990822
 20
180.5073320447403
 30
0.0
 11
-79.55737180990822
 21
180.5073320447403
 31
0.0
  0
LINE
  5
8C
330
1F
100
AcDbEntity
  8
0
  6
Continuous
 62
     7
100
AcDbLine
 10
-64.00737180990822
 20
180.5073320447403
 30
0.0
 11
-65.10737180990833
 21
180.5073320447403
 31
0.0
  0
LINE
  5
8D
330
1F
100
AcDbEntity
  8
0
  6
Continuous
 62
     7
100
AcDbLine
 10
-67.24292302519203
 20
180.5073320447403
 30
0.0
 11
-67.30737180990822
 21
180.5073320447403
 31
0.0
  0
LINE
  5
8E
330
1F
100
AcDbEntity
  8
0
  6
Continuous
 62
     7
100
AcDbLine
 10
-49.55737180990823
 20
177.0073320447403
 30
0.0
 11
-49.55737180990823
 21
180.5073320447403
 31
0.0
  0
LINE
  5
8F
330
1F
100
AcDbEntity
  8
0
  6
Continuous
 62
     7
100
AcDbLine
 10
-52.55737180990823
 20
184.5073320447403
 30
0.0
 11
-50.65737180990831
 21
184.5073320447403
 31
0.0
  0
LINE
  5
90
330
1F
100
AcDbEntity
  8
0
  6
Continuous
 62
     7
100
AcDbLine
 10
-52.55737180990823
 20
180.5073320447403
 30
0.0
 11
-52.55737180990823
 21
184.5073320447403
 31
0.0
  0
LINE
  5
91
330
1F
100
AcDbEntity
  8
0
  6
Continuous
 62
     7
100
AcDbLine
 10
-49.55737180990823
 20
180.5073320447403
 30
0.0
 11
-49.55737180990823
 21
184.5073320447403
 31
0.0
  0
LINE
  5
92
330
1F
100
AcDbEntity
  8
0
  6
Continuous
 62
     7
100
AcDbLine
 10
-70.45181134661432
 20
180.5073320447403
 30
0.0
 11
-70.49627679289122
 21
180.5073320447403
 31
0.0
  0
LINE
  5
93
330
1F
100
AcDbEntity
  8
0
  6
Continuous
 62
     7
100
AcDbLine
 10
-70.30737180990822
 20
180.5073320447403
 30
0.0
 11
-70.45181134661432
 21
180.5073320447403
 31
0.0
  0
LINE
  5
94
330
1F
100
AcDbEntity
  8
0
  6
Continuous
 62
     7
100
AcDbLine
 10
-70.49627679289122
 20
180.5073320447403
 30
0.0
 11
-70.80737180990822
 21
180.5073320447403
 31
0.0
  0
LINE
  5
95
330
1F
100
AcDbEntity
  8
0
  6
Continuous
 62
     7
100
AcDbLine
 10
-72.51846682692532
 20
180.5073320447403
 30
0.0
 11
-72.55737180990822
 21
180.5073320447403
 31
0.0
  0
LINE
  5
96
330
1F
100
AcDbEntity
  8
0
  6
Continuous
 62
     7
100
AcDbLine
 10
-72.00737180990822
 20
180.5073320447403
 30
0.0
 11
-72.51846682692532
 21
180.5073320447403
 31
0.0
  0
LINE
  5
97
330
1F
100
AcDbEntity
  8
0
  6
Continuous
 62
     7
100
AcDbLine
 10
-70.80737180990822
 20
180.5073320447403
 30
0.0
 11
-71.00737180990822
 21
180.5073320447403
 31
0.0
  0
LINE
  5
98
330
1F
100
AcDbEntity
  8
0
  6
Continuous
 62
     7
100
AcDbLine
 10
-71.00737180990822
 20
180.5073320447403
 30
0.0
 11
-72.00737180990822
 21
180.5073320447403
 31
0.0
  0
LINE
  5
99
330
1F
100
AcDbEntity
  8
0
  6
Continuous
 62
     7
100
AcDbLine
 10
-72.55737180990822
 20
180.5073320447403
 30
0.0
 11
-72.56293227320222
 21
180.5073320447403
 31
0.0
  0
LINE
  5
9A
330
1F
100
AcDbEntity
  8
0
  6
Continuous
 62
     7
100
AcDbLine
 10
-81.55737180990822
 20
177.0073320447403
 30
0.0
 11
-81.55737180990822
 21
177.5073320447403
 31
0.0
  0
LINE
  5
9B
330
1F
100
AcDbEntity
  8
0
  6
Continuous
 62
     7
100
AcDbLine
 10
-81.55737180990822
 20
177.5073320447403
 30
0.0
 11
-81.55737180990822
 21
180.5073320447403
 31
0.0
  0
LINE
  5
9C
330
1F
100
AcDbEntity
  8
0
  6
Continuous
 62
     7
100
AcDbLine
 10
-70.80737180990822
 20
180.5073320447403
 30
0.0
 11
-70.80737180990822
 21
167.5073320447403
 31
0.0
  0
LINE
  5
9D
330
1F
100
AcDbEntity
  8
0
  6
Continuous
 62
     7
100
AcDbLine
 10
-63.49627679289122
 20
180.5073320447403
 30
0.0
 11
-64.00737180990822
 21
180.5073320447403
 31
0.0
  0
LINE
  5
9E
330
1F
100
AcDbEntity
  8
0
  6
Continuous
 62
     7
100
AcDbLine
 10
-58.30737180990823
 20
180.5073320447403
 30
0.0
 11
-58.61846682692533
 21
180.5073320447403
 31
0.0
  0
LINE
  5
9F
330
1F
100
AcDbEntity
  8
0
  6
Continuous
 62
     7
100
AcDbLine
 10
-58.61846682692533
 20
180.5073320447403
 30
0.0
 11
-58.66293227320233
 21
180.5073320447403
 31
0.0
  0
LINE
  5
A0
330
1F
100
AcDbEntity
  8
0
  6
Continuous
 62
     7
100
AcDbLine
 10
-58.66293227320233
 20
180.5073320447403
 30
0.0
 11
-58.80737180990823
 21
180.5073320447403
 31
0.0
  0
LINE
  5
A1
330
1F
100
AcDbEntity
  8
0
  6
Continuous
 62
     7
100
AcDbLine
 10
-63.45181134661434
 20
180.5073320447403
 30
0.0
 11
-63.49627679289122
 21
180.5073320447403
 31
0.0
  0
LINE
  5
A2
330
1F
100
AcDbEntity
  8
0
  6
Continuous
 62
     7
100
AcDbLine
 10
-61.87182059462452
 20
180.5073320447403
 30
0.0
 11
-62.38583277899093
 21
180.5073320447403
 31
0.0
  0
LINE
  5
A3
330
1F
100
AcDbEntity
  8
0
  6
Continuous
 62
     7
100
AcDbLine
 10
-61.80737180990823
 20
180.5073320447403
 30
0.0
 11
-61.87182059462452
 21
180.5073320447403
 31
0.0
  0
LINE
  5
A4
330
1F
100
AcDbEntity
  8
0
  6
Continuous
 62
     7
100
AcDbLine
 10
-62.38583277899093
 20
180.5073320447403
 30
0.0
 11
-63.45181134661434
 21
180.5073320447403
 31
0.0
  0
LINE
  5
A5
330
1F
100
AcDbEntity
  8
0
  6
Continuous
 62
     7
100
AcDbLine
 10
-58.10737180990833
 20
180.5073320447403
 30
0.0
 11
-58.30737180990823
 21
180.5073320447403
 31
0.0
  0
LINE
  5
A6
330
1F
100
AcDbEntity
  8
0
  6
Continuous
 62
     7
100
AcDbLine
 10
-57.10737180990833
 20
180.5073320447403
 30
0.0
 11
-58.10737180990833
 21
180.5073320447403
 31
0.0
  0
LINE
  5
A7
330
1F
100
AcDbEntity
  8
0
  6
Continuous
 62
     7
100
AcDbLine
 10
-56.55737180990823
 20
180.5073320447403
 30
0.0
 11
-56.59627679289122
 21
180.5073320447403
 31
0.0
  0
LINE
  5
A8
330
1F
100
AcDbEntity
  8
0
  6
Continuous
 62
     7
100
AcDbLine
 10
-56.59627679289122
 20
180.5073320447403
 30
0.0
 11
-57.10737180990833
 21
180.5073320447403
 31
0.0
  0
LINE
  5
A9
330
1F
100
AcDbEntity
  8
0
  6
Continuous
 62
     7
100
AcDbLine
 10
-58.30737180990823
 20
167.5073320447403
 30
0.0
 11
-58.30737180990823
 21
180.5073320447403
 31
0.0
  0
LINE
  5
AA
330
1F
100
AcDbEntity
  8
0
  6
Continuous
 62
     7
100
AcDbLine
 10
-56.55737180990823
 20
180.5073320447403
 30
0.0
 11
-56.55737180990823
 21
170.5073320447403
 31
0.0
  0
LINE
  5
AB
330
1F
100
AcDbEntity
  8
0
  6
Continuous
 62
     7
100
AcDbLine
 10
-56.55737180990823
 20
180.5073320447403
 30
0.0
 11
-56.55181134661433
 21
180.5073320447403
 31
0.0
  0
LINE
  5
AC
330
1F
100
AcDbEntity
  8
0
  6
Continuous
 62
     7
100
AcDbLine
 10
-56.55181134661433
 20
180.5073320447403
 30
0.0
 11
-56.38333455076003
 21
180.5073320447403
 31
0.0
  0
LINE
  5
AD
330
1F
100
AcDbEntity
  8
0
  6
Continuous
 62
     7
100
AcDbLine
 10
-51.75737180990822
 20
163.0073320447403
 30
0.0
 11
-51.75737180990822
 21
165.6573320447403
 31
0.0
  0
LINE
  5
AE
330
1F
100
AcDbEntity
  8
0
  6
Continuous
 62
     7
100
AcDbLine
 10
-58.30737180990823
 20
167.5073320447403
 30
0.0
 11
-70.80737180990822
 21
167.5073320447403
 31
0.0
  0
LINE
  5
AF
330
1F
100
AcDbEntity
  8
0
  6
Continuous
 62
     7
100
AcDbLine
 10
-47.55737180990823
 20
180.5073320447403
 30
0.0
 11
-47.55737180990823
 21
177.0073320447403
 31
0.0
  0
LINE
  5
B0
330
1F
100
AcDbEntity
  8
0
  6
Continuous
 62
     7
100
AcDbLine
 10
-51.75737180990822
 20
163.0073320447403
 30
0.0
 11
-49.55737180990823
 21
163.0073320447403
 31
0.0
  0
LINE
  5
B1
330
1F
100
AcDbEntity
  8
0
  6
Continuous
 62
     7
100
AcDbLine
 10
-49.55737180990823
 20
165.6573320447403
 30
0.0
 11
-51.75737180990822
 21
165.6573320447403
 31
0.0
  0
LINE
  5
B2
330
1F
100
AcDbEntity
  8
0
  6
Continuous
 62
     7
100
AcDbLine
 10
-49.55737180990823
 20
165.6573320447403
 30
0.0
 11
-49.55737180990823
 21
177.0073320447403
 31
0.0
  0
LINE
  5
B3
330
1F
100
AcDbEntity
  8
0
  6
Continuous
 62
     7
100
AcDbLine
 10
-78.45737180990832
 20
184.5073320447403
 30
0.0
 11
-76.55737180990822
 21
184.5073320447403
 31
0.0
  0
LINE
  5
B4
330
1F
100
AcDbEntity
  8
0
  6
Continuous
 62
     7
100
AcDbLine
 10
-76.55737180990822
 20
180.5073320447403
 30
0.0
 11
-76.55737180990822
 21
170.5073320447403
 31
0.0
  0
LINE
  5
B5
330
1F
100
AcDbEntity
  8
0
  6
Continuous
 62
     7
100
AcDbLine
 10
-76.55737180990822
 20
184.5073320447403
 30
0.0
 11
-76.55737180990822
 21
180.5073320447403
 31
0.0
  0
LINE
  5
B6
330
1F
100
AcDbEntity
  8
0
  6
Continuous
 62
     7
100
AcDbLine
 10
-78.62737180990823
 20
184.5073320447403
 30
0.0
 11
-78.55737180990822
 21
184.5073320447403
 31
0.0
  0
LINE
  5
B7
330
1F
100
AcDbEntity
  8
0
  6
Continuous
 62
     7
100
AcDbLine
 10
-78.55737180990822
 20
184.5073320447403
 30
0.0
 11
-78.45737180990832
 21
184.5073320447403
 31
0.0
  0
LINE
  5
B8
330
1F
100
AcDbEntity
  8
0
  6
Continuous
 62
     7
100
AcDbLine
 10
-78.75737180990822
 20
184.5073320447403
 30
0.0
 11
-78.70737180990832
 21
184.5073320447403
 31
0.0
  0
LINE
  5
B9
330
1F
100
AcDbEntity
  8
0
  6
Continuous
 62
     7
100
AcDbLine
 10
-78.70737180990832
 20
184.5073320447403
 30
0.0
 11
-78.62737180990823
 21
184.5073320447403
 31
0.0
  0
LINE
  5
BA
330
1F
100
AcDbEntity
  8
0
  6
Continuous
 62
     7
100
AcDbLine
 10
-77.35737180990833
 20
165.6573320447403
 30
0.0
 11
-77.35737180990833
 21
163.0073320447403
 31
0.0
  0
LINE
  5
BB
330
1F
100
AcDbEntity
  8
0
  6
Continuous
 62
     7
100
AcDbLine
 10
-79.55737180990822
 20
163.0073320447403
 30
0.0
 11
-77.35737180990833
 21
163.0073320447403
 31
0.0
  0
LINE
  5
BC
330
1F
100
AcDbEntity
  8
0
  6
Continuous
 62
     7
100
AcDbLine
 10
-77.35737180990833
 20
165.6573320447403
 30
0.0
 11
-79.55737180990822
 21
165.6573320447403
 31
0.0
  0
LINE
  5
BD
330
1F
100
AcDbEntity
  8
0
  6
Continuous
 62
     7
100
AcDbLine
 10
-79.55737180990822
 20
180.5073320447403
 30
0.0
 11
-79.55737180990832
 21
184.5073320447403
 31
0.0
  0
LINE
  5
BE
330
1F
100
AcDbEntity
  8
0
  6
Continuous
 62
     7
100
AcDbLine
 10
-79.55737180990822
 20
177.0073320447403
 30
0.0
 11
-79.55737180990822
 21
180.5073320447403
 31
0.0
  0
LINE
  5
BF
330
1F
100
AcDbEntity
  8
0
  6
Continuous
 62
     7
100
AcDbLine
 10
-79.55737180990822
 20
165.6573320447403
 30
0.0
 11
-79.55737180990822
 21
163.0073320447403
 31
0.0
  0
LINE
  5
C0
330
1F
100
AcDbEntity
  8
0
  6
Continuous
 62
     7
100
AcDbLine
 10
-79.55737180990822
 20
165.6573320447403
 30
0.0
 11
-79.55737180990822
 21
177.0073320447403
 31
0.0
  0
LINE
  5
C1
330
1F
100
AcDbEntity
  8
0
  6
Continuous
 62
     7
100
AcDbLine
 10
-79.55737180990822
 20
177.0073320447403
 30
0.0
 11
-81.55737180990822
 21
177.0073320447403
 31
0.0
  0
LINE
  5
C2
330
1F
100
AcDbEntity
  8
0
  6
Continuous
 62
     7
100
AcDbLine
 10
-79.55737180990822
 20
146.5073320447403
 30
0.0
 11
-79.55737180990822
 21
163.0073320447403
 31
0.0
  0
LINE
  5
C3
330
1F
100
AcDbEntity
  8
0
  6
Continuous
 62
     7
100
AcDbLine
 10
-62.05737180990823
 20
176.5073320447403
 30
0.0
 11
-67.05737180990822
 21
176.5073320447403
 31
0.0
  0
LINE
  5
C4
330
1F
100
AcDbEntity
  8
0
  6
Continuous
 62
     7
100
AcDbLine
 10
-49.55737180990823
 20
163.0073320447403
 30
0.0
 11
-49.55737180990823
 21
165.6573320447403
 31
0.0
  0
LINE
  5
C5
330
1F
100
AcDbEntity
  8
0
  6
Continuous
 62
     7
100
AcDbLine
 10
-47.55737180990823
 20
177.0073320447403
 30
0.0
 11
-49.55737180990823
 21
177.0073320447403
 31
0.0
  0
LINE
  5
C6
330
1F
100
AcDbEntity
  8
0
  6
Continuous
 62
     7
100
AcDbLine
 10
-49.55737180990823
 20
146.5073320447403
 30
0.0
 11
-49.55737180990823
 21
163.0073320447403
 31
0.0
  0
LINE
  5
C7
330
1F
100
AcDbEntity
  8
0
  6
Continuous
 62
     7
100
AcDbLine
 10
-79.55737180990822
 20
146.5073320447403
 30
0.0
 11
-49.55737180990823
 21
146.5073320447403
 31
0.0
  0
LINE
  5
C8
330
1F
100
AcDbEntity
  8
0
  6
Continuous
 62
     7
100
AcDbLine
 10
-143.8567917904764
 20
165.6573320447402
 30
0.0
 11
-143.8567917904764
 21
163.0073320447403
 31
0.0
  0
LINE
  5
C9
330
1F
100
AcDbEntity
  8
0
  6
Continuous
 62
     7
100
AcDbLine
 10
-143.8567917904764
 20
184.5073320447403
 30
0.0
 11
-143.8567917904764
 21
165.6573320447402
 31
0.0
  0
LINE
  5
CA
330
1F
100
AcDbEntity
  8
0
  6
Continuous
 62
     7
100
AcDbLine
 10
-143.8567917904764
 20
163.0073320447403
 30
0.0
 11
-143.8567917904764
 21
146.5073320447403
 31
0.0
  0
LINE
  5
CB
330
1F
100
AcDbEntity
  8
0
  6
Continuous
 62
     7
100
AcDbLine
 10
-143.8567917904763
 20
88.65247224571269
 30
0.0
 11
-143.8567917904764
 21
93.90247224571269
 31
0.0
  0
LINE
  5
CC
330
1F
100
AcDbEntity
  8
0
  6
Continuous
 62
     7
100
AcDbLine
 10
-143.8567917904764
 20
93.90247224571269
 30
0.0
 11
-143.8567917904765
 21
99.40247224571269
 31
0.0
  0
LINE
  5
CD
330
1F
100
AcDbEntity
  8
0
  6
Continuous
 62
     7
100
AcDbLine
 10
-143.8567917904765
 20
99.40247224571269
 30
0.0
 11
-143.8567917904763
 21
104.6524722457127
 31
0.0
  0
LINE
  5
CE
330
1F
100
AcDbEntity
  8
0
  6
Continuous
 62
     7
100
AcDbLine
 10
-143.8567917904763
 20
90.40247224571269
 30
0.0
 11
-143.8567917904763
 21
88.65247224571269
 31
0.0
  0
LINE
  5
CF
330
1F
100
AcDbEntity
  8
0
  6
Continuous
 62
     7
100
AcDbLine
 10
-143.8567917904763
 20
85.17875498295561
 30
0.0
 11
-143.8567917904763
 21
85.02618950846968
 31
0.0
  0
LINE
  5
D0
330
1F
100
AcDbEntity
  8
0
  6
Continuous
 62
     7
100
AcDbLine
 10
-143.8567917904763
 20
88.27875498295552
 30
0.0
 11
-143.8567917904763
 21
88.1261895084696
 31
0.0
  0
LINE
  5
D1
330
1F
100
AcDbEntity
  8
0
  6
Continuous
 62
     7
100
AcDbLine
 10
-143.9510281044481
 20
88.65247224571269
 30
0.0
 11
-143.8567917904763
 21
88.65247224571269
 31
0.0
  0
LINE
  5
D2
330
1F
100
AcDbEntity
  8
0
  6
Continuous
 62
     7
100
AcDbLine
 10
-143.8567917904763
 20
88.1261895084696
 30
0.0
 11
-143.8567917904763
 21
85.17875498295561
 31
0.0
  0
LINE
  5
D3
330
1F
100
AcDbEntity
  8
0
  6
Continuous
 62
     7
100
AcDbLine
 10
-143.8567917904763
 20
85.02618950846968
 30
0.0
 11
-143.8567917904763
 21
84.65247224571269
 31
0.0
  0
LINE
  5
D4
330
1F
100
AcDbEntity
  8
0
  6
Continuous
 62
     7
100
AcDbLine
 10
-143.8567917904763
 20
88.65247224571269
 30
0.0
 11
-143.8567917904763
 21
88.27875498295552
 31
0.0
  0
LINE
  5
D5
330
1F
100
AcDbEntity
  8
0
  6
Continuous
 62
     7
100
AcDbLine
 10
-143.8567917904763
 20
104.6524722457127
 30
0.0
 11
-143.8567917904763
 21
102.9024722457127
 31
0.0
  0
LINE
  5
D6
330
1F
100
AcDbEntity
  8
0
  6
Continuous
 62
     7
100
AcDbLine
 10
-143.8567917904763
 20
102.9024722457127
 30
0.0
 11
-143.8567917904763
 21
90.40247224571269
 31
0.0
  0
LINE
  5
D7
330
1F
100
AcDbEntity
  8
0
  6
Continuous
 62
     7
100
AcDbLine
 10
-143.8567917904763
 20
105.0261895084695
 30
0.0
 11
-143.8567917904763
 21
104.6524722457127
 31
0.0
  0
LINE
  5
D8
330
1F
100
AcDbEntity
  8
0
  6
Continuous
 62
     7
100
AcDbLine
 10
-143.8567917904763
 20
105.1787549829558
 30
0.0
 11
-143.8567917904763
 21
105.0261895084695
 31
0.0
  0
LINE
  5
D9
330
1F
100
AcDbEntity
  8
0
  6
Continuous
 62
     7
100
AcDbLine
 10
-143.8567917904763
 20
108.2787549829555
 30
0.0
 11
-143.8567917904763
 21
108.1261895084696
 31
0.0
  0
LINE
  5
DA
330
1F
100
AcDbEntity
  8
0
  6
Continuous
 62
     7
100
AcDbLine
 10
-143.8567917904763
 20
108.1261895084696
 30
0.0
 11
-143.8567917904763
 21
105.1787549829558
 31
0.0
  0
LINE
  5
DB
330
1F
100
AcDbEntity
  8
0
  6
Continuous
 62
     7
100
AcDbLine
 10
-143.8567917904763
 20
108.6524722457127
 30
0.0
 11
-143.8567917904763
 21
108.2787549829555
 31
0.0
  0
LINE
  5
DC
330
1F
100
AcDbEntity
  8
0
  6
Continuous
 62
     7
100
AcDbLine
 10
-143.8567917904763
 20
108.6524722457127
 30
0.0
 11
-143.8567917904763
 21
111.6524722457127
 31
0.0
  0
LINE
  5
DD
330
1F
100
AcDbEntity
  8
0
  6
Continuous
 62
     7
100
AcDbLine
 10
-143.8567917904763
 20
84.65247224571269
 30
0.0
 11
-143.8567917904763
 21
81.65247224571269
 31
0.0
  0
LINE
  5
DE
330
1F
100
AcDbEntity
  8
0
  6
Continuous
 62
     7
100
AcDbLine
 10
-143.837225790476
 20
258.462325982988
 30
0.0
 11
-143.837225790476
 21
228.4623259829881
 31
0.0
  0
LINE
  5
DF
330
1F
100
AcDbEntity
  8
0
  6
Continuous
 62
     7
100
AcDbLine
 10
-140.637225790476
 20
249.3906951874068
 30
0.0
 11
-142.7872257904761
 21
249.195343885162
 31
0.0
  0
LINE
  5
E0
330
1F
100
AcDbEntity
  8
0
  6
Continuous
 62
     7
100
AcDbLine
 10
-142.7872257904761
 20
250.1250678896806
 30
0.0
 11
-140.637225790476
 21
249.9339567785692
 31
0.0
  0
LINE
  5
E1
330
1F
100
AcDbEntity
  8
0
  6
Continuous
 62
     7
100
AcDbLine
 10
-142.7872257904761
 20
242.0979666290432
 30
0.0
 11
-142.7872257904761
 21
244.826685336933
 31
0.0
  0
LINE
  5
E2
330
1F
100
AcDbEntity
  8
0
  6
Continuous
 62
     7
100
AcDbLine
 10
-142.7872257904761
 20
235.1979666290432
 30
0.0
 11
-142.7872257904761
 21
239.326685336933
 31
0.0
  0
LINE
  5
E3
330
1F
100
AcDbEntity
  8
0
  6
Continuous
 62
     7
100
AcDbLine
 10
-143.837225790476
 20
234.8065862060721
 30
0.0
 11
-143.837225790476
 21
252.1180657599042
 31
0.0
  0
LINE
  5
E4
330
1F
100
AcDbEntity
  8
0
  6
Continuous
 62
     7
100
AcDbLine
 10
-143.837225790476
 20
254.8065862060722
 30
0.0
 11
-143.837225790476
 21
258.462325982988
 31
0.0
  0
LINE
  5
E5
330
1F
100
AcDbEntity
  8
0
  6
Continuous
 62
     7
100
AcDbLine
 10
-142.7872257904761
 20
250.1250678896806
 30
0.0
 11
-142.7872257904761
 21
251.7266853369329
 31
0.0
  0
LINE
  5
E6
330
1F
100
AcDbEntity
  8
0
  6
Continuous
 62
     7
100
AcDbLine
 10
-142.7872257904761
 20
247.5979666290432
 30
0.0
 11
-142.7872257904761
 21
249.195343885162
 31
0.0
  0
LINE
  5
E7
330
1F
100
AcDbEntity
  8
0
  6
Continuous
 62
     7
100
AcDbLine
 10
-142.7872257904761
 20
254.4979666290432
 30
0.0
 11
-142.7872257904761
 21
256.987325982988
 31
0.0
  0
LINE
  5
E8
330
1F
100
AcDbEntity
  8
0
  6
Continuous
 62
     7
100
AcDbLine
 10
-140.637225790476
 20
249.9339567785692
 30
0.0
 11
-140.637225790476
 21
249.3906951874068
 31
0.0
  0
LINE
  5
E9
330
1F
100
AcDbEntity
  8
0
  6
Continuous
 62
     7
100
AcDbLine
 10
-139.5970087904761
 20
260.462325982988
 30
0.0
 11
-139.5970087904761
 21
258.462325982988
 31
0.0
  0
LINE
  5
EA
330
1F
100
AcDbEntity
  8
0
  6
Continuous
 62
     7
100
AcDbLine
 10
-139.5970087904761
 20
260.462325982988
 30
0.0
 11
-139.0970087904761
 21
260.462325982988
 31
0.0
  0
LINE
  5
EB
330
1F
100
AcDbEntity
  8
0
  6
Continuous
 62
     7
100
AcDbLine
 10
-143.837225790476
 20
258.462325982988
 30
0.0
 11
-139.5970087904761
 21
258.462325982988
 31
0.0
  0
LINE
  5
EC
330
1F
100
AcDbEntity
  8
0
  6
Continuous
 62
     7
100
AcDbLine
 10
-142.7872257904761
 20
256.987325982988
 30
0.0
 11
-137.8722476244678
 21
256.987325982988
 31
0.0
  0
LINE
  5
ED
330
1F
100
AcDbEntity
  8
0
  6
Continuous
 62
     7
100
AcDbLine
 10
-124.8970087904761
 20
260.462325982988
 30
0.0
 11
-124.3970087904761
 21
260.462325982988
 31
0.0
  0
LINE
  5
EE
330
1F
100
AcDbEntity
  8
0
  6
Continuous
 62
     7
100
AcDbLine
 10
-119.197008790476
 20
260.462325982988
 30
0.0
 11
-124.3970087904761
 21
260.462325982988
 31
0.0
  0
LINE
  5
EF
330
1F
100
AcDbEntity
  8
0
  6
Continuous
 62
     7
100
AcDbLine
 10
-124.8970087904761
 20
258.462325982988
 30
0.0
 11
-118.697008790476
 21
258.462325982988
 31
0.0
  0
LINE
  5
F0
330
1F
100
AcDbEntity
  8
0
  6
Continuous
 62
     7
100
AcDbLine
 10
-125.3970087904761
 20
226.4623259829881
 30
0.0
 11
-118.197008790476
 21
226.4623259829881
 31
0.0
  0
LINE
  5
F1
330
1F
100
AcDbEntity
  8
0
  6
Continuous
 62
     7
100
AcDbLine
 10
-125.8970087904761
 20
228.4623259829881
 30
0.0
 11
-125.8970087904761
 21
226.4623259829881
 31
0.0
  0
LINE
  5
F2
330
1F
100
AcDbEntity
  8
0
  6
Continuous
 62
     7
100
AcDbLine
 10
-125.8970087904761
 20
226.4623259829881
 30
0.0
 11
-125.3970087904761
 21
226.4623259829881
 31
0.0
  0
LINE
  5
F3
330
1F
100
AcDbEntity
  8
0
  6
Continuous
 62
     7
100
AcDbLine
 10
-132.3970087904762
 20
226.4623259829881
 30
0.0
 11
-132.8970087904762
 21
226.4623259829881
 31
0.0
  0
LINE
  5
F4
330
1F
100
AcDbEntity
  8
0
  6
Continuous
 62
     7
100
AcDbLine
 10
-140.0970087904761
 20
226.4623259829881
 30
0.0
 11
-132.8970087904762
 21
226.4623259829881
 31
0.0
  0
LINE
  5
F5
330
1F
100
AcDbEntity
  8
0
  6
Continuous
 62
     7
100
AcDbLine
 10
-140.5970087904761
 20
228.4623259829881
 30
0.0
 11
-143.837225790476
 21
228.4623259829881
 31
0.0
  0
LINE
  5
F6
330
1F
100
AcDbEntity
  8
0
  6
Continuous
 62
     7
100
AcDbLine
 10
-137.8722476244678
 20
230.0123259829881
 30
0.0
 11
-142.7872257904761
 21
230.0123259829881
 31
0.0
  0
LINE
  5
F7
330
1F
100
AcDbEntity
  8
0
  6
Continuous
 62
     7
100
AcDbLine
 10
-131.0022039564843
 20
229.9373259829881
 30
0.0
 11
-127.2722476244677
 21
229.9373259829881
 31
0.0
  0
LINE
  5
F8
330
1F
100
AcDbEntity
  8
0
  6
Continuous
 62
     7
100
AcDbLine
 10
-137.8722476244678
 20
230.0123259829881
 30
0.0
 11
-137.8722476244678
 21
229.9373259829881
 31
0.0
  0
LINE
  5
F9
330
1F
100
AcDbEntity
  8
0
  6
Continuous
 62
     7
100
AcDbLine
 10
-132.3970087904762
 20
226.4623259829881
 30
0.0
 11
-132.3970087904762
 21
228.4623259829881
 31
0.0
  0
LINE
  5
FA
330
1F
100
AcDbEntity
  8
0
  6
Continuous
 62
     7
100
AcDbLine
 10
-132.3970087904762
 20
228.4623259829881
 30
0.0
 11
-140.5970087904761
 21
228.4623259829881
 31
0.0
  0
LINE
  5
FB
330
1F
100
AcDbEntity
  8
0
  6
Continuous
 62
     7
100
AcDbLine
 10
-125.8970087904761
 20
228.4623259829881
 30
0.0
 11
-132.3970087904762
 21
228.4623259829881
 31
0.0
  0
LINE
  5
FC
330
1F
100
AcDbEntity
  8
0
  6
Continuous
 62
     7
100
AcDbLine
 10
-140.5970087904761
 20
228.4623259829881
 30
0.0
 11
-140.5970087904761
 21
226.4623259829881
 31
0.0
  0
LINE
  5
FD
330
1F
100
AcDbEntity
  8
0
  6
Continuous
 62
     7
100
AcDbLine
 10
-140.5970087904761
 20
226.4623259829881
 30
0.0
 11
-140.0970087904761
 21
226.4623259829881
 31
0.0
  0
LINE
  5
FE
330
1F
100
AcDbEntity
  8
0
  6
Continuous
 62
     7
100
AcDbLine
 10
-143.837225790476
 20
228.4623259829881
 30
0.0
 11
-143.837225790476
 21
232.1180657599041
 31
0.0
  0
LINE
  5
FF
330
1F
100
AcDbEntity
  8
0
  6
Continuous
 62
     7
100
AcDbLine
 10
-142.7872257904761
 20
230.0123259829881
 30
0.0
 11
-142.7872257904761
 21
232.4266853369329
 31
0.0
  0
LINE
  5
100
330
1F
100
AcDbEntity
  8
0
  6
Continuous
 62
     7
100
AcDbLine
 10
-133.3970087904762
 20
258.462325982988
 30
0.0
 11
-124.8970087904761
 21
258.462325982988
 31
0.0
  0
LINE
  5
101
330
1F
100
AcDbEntity
  8
0
  6
Continuous
 62
     7
100
AcDbLine
 10
-133.8970087904762
 20
260.462325982988
 30
0.0
 11
-139.0970087904761
 21
260.462325982988
 31
0.0
  0
LINE
  5
102
330
1F
100
AcDbEntity
  8
0
  6
Continuous
 62
     7
100
AcDbLine
 10
-133.3970087904762
 20
260.462325982988
 30
0.0
 11
-133.8970087904762
 21
260.462325982988
 31
0.0
  0
LINE
  5
103
330
1F
100
AcDbEntity
  8
0
  6
Continuous
 62
     7
100
AcDbLine
 10
-139.5970087904761
 20
258.462325982988
 30
0.0
 11
-133.3970087904762
 21
258.462325982988
 31
0.0
  0
LINE
  5
104
330
1F
100
AcDbEntity
  8
0
  6
Continuous
 62
     7
100
AcDbLine
 10
-118.697008790476
 20
258.462325982988
 30
0.0
 11
-114.437225790476
 21
258.462325982988
 31
0.0
  0
LINE
  5
105
330
1F
100
AcDbEntity
  8
0
  6
Continuous
 62
     7
100
AcDbLine
 10
-117.697008790476
 20
226.4623259829881
 30
0.0
 11
-118.197008790476
 21
226.4623259829881
 31
0.0
  0
LINE
  5
106
330
1F
100
AcDbEntity
  8
0
  6
Continuous
 62
     7
100
AcDbLine
 10
-117.697008790476
 20
226.4623259829881
 30
0.0
 11
-117.697008790476
 21
228.4623259829881
 31
0.0
  0
LINE
  5
107
330
1F
100
AcDbEntity
  8
0
  6
Continuous
 62
     7
100
AcDbLine
 10
-117.697008790476
 20
228.4623259829881
 30
0.0
 11
-125.8970087904761
 21
228.4623259829881
 31
0.0
  0
LINE
  5
108
330
1F
100
AcDbEntity
  8
0
  6
Continuous
 62
     7
100
AcDbLine
 10
-115.487225790476
 20
232.4266853369329
 30
0.0
 11
-115.487225790476
 21
230.0123259829881
 31
0.0
  0
LINE
  5
109
330
1F
100
AcDbEntity
  8
0
  6
Continuous
 62
     7
100
AcDbLine
 10
-115.487225790476
 20
239.326685336933
 30
0.0
 11
-115.487225790476
 21
235.1979666290432
 31
0.0
  0
LINE
  5
10A
330
1F
100
AcDbEntity
  8
0
  6
Continuous
 62
     7
100
AcDbLine
 10
-115.487225790476
 20
244.826685336933
 30
0.0
 11
-115.487225790476
 21
242.097966629043
 31
0.0
  0
LINE
  5
10B
330
1F
100
AcDbEntity
  8
0
  6
Continuous
 62
     7
100
AcDbLine
 10
-120.4022039564843
 20
229.9373259829881
 30
0.0
 11
-120.4022039564843
 21
230.0123259829881
 31
0.0
  0
LINE
  5
10C
330
1F
100
AcDbEntity
  8
0
  6
Continuous
 62
     7
100
AcDbLine
 10
-115.487225790476
 20
230.0123259829881
 30
0.0
 11
-120.4022039564843
 21
230.0123259829881
 31
0.0
  0
LINE
  5
10D
330
1F
100
AcDbEntity
  8
0
  6
Continuous
 62
     7
100
AcDbLine
 10
-114.437225790476
 20
228.4623259829881
 30
0.0
 11
-117.697008790476
 21
228.4623259829881
 31
0.0
  0
LINE
  5
10E
330
1F
100
AcDbEntity
  8
0
  6
Continuous
 62
     7
100
AcDbLine
 10
-133.3970087904762
 20
258.462325982988
 30
0.0
 11
-133.3970087904762
 21
260.462325982988
 31
0.0
  0
LINE
  5
10F
330
1F
100
AcDbEntity
  8
0
  6
Continuous
 62
     7
100
AcDbLine
 10
-124.8970087904761
 20
260.462325982988
 30
0.0
 11
-124.8970087904761
 21
258.462325982988
 31
0.0
  0
LINE
  5
110
330
1F
100
AcDbEntity
  8
0
  6
Continuous
 62
     7
100
AcDbLine
 10
-127.2722476244677
 20
256.987325982988
 30
0.0
 11
-131.0022039564843
 21
256.987325982988
 31
0.0
  0
LINE
  5
111
330
1F
100
AcDbEntity
  8
0
  6
Continuous
 62
     7
100
AcDbLine
 10
-118.697008790476
 20
258.462325982988
 30
0.0
 11
-118.697008790476
 21
260.462325982988
 31
0.0
  0
LINE
  5
112
330
1F
100
AcDbEntity
  8
0
  6
Continuous
 62
     7
100
AcDbLine
 10
-118.697008790476
 20
260.462325982988
 30
0.0
 11
-119.197008790476
 21
260.462325982988
 31
0.0
  0
LINE
  5
113
330
1F
100
AcDbEntity
  8
0
  6
Continuous
 62
     7
100
AcDbLine
 10
-115.487225790476
 20
249.195343885162
 30
0.0
 11
-115.487225790476
 21
247.597966629043
 31
0.0
  0
LINE
  5
114
330
1F
100
AcDbEntity
  8
0
  6
Continuous
 62
     7
100
AcDbLine
 10
-115.487225790476
 20
256.987325982988
 30
0.0
 11
-115.487225790476
 21
254.4979666290432
 31
0.0
  0
LINE
  5
115
330
1F
100
AcDbEntity
  8
0
  6
Continuous
 62
     7
100
AcDbLine
 10
-117.637225790476
 20
249.3906951874068
 30
0.0
 11
-117.637225790476
 21
249.9339567785692
 31
0.0
  0
LINE
  5
116
330
1F
100
AcDbEntity
  8
0
  6
Continuous
 62
     7
100
AcDbLine
 10
-117.637225790476
 20
249.9339567785692
 30
0.0
 11
-115.487225790476
 21
250.1250678896806
 31
0.0
  0
LINE
  5
117
330
1F
100
AcDbEntity
  8
0
  6
Continuous
 62
     7
100
AcDbLine
 10
-115.487225790476
 20
251.7266853369329
 30
0.0
 11
-115.487225790476
 21
250.1250678896806
 31
0.0
  0
LINE
  5
118
330
1F
100
AcDbEntity
  8
0
  6
Continuous
 62
     7
100
AcDbLine
 10
-115.487225790476
 20
249.195343885162
 30
0.0
 11
-117.637225790476
 21
249.3906951874068
 31
0.0
  0
LINE
  5
119
330
1F
100
AcDbEntity
  8
0
  6
Continuous
 62
     7
100
AcDbLine
 10
-120.4022039564843
 20
256.987325982988
 30
0.0
 11
-115.487225790476
 21
256.987325982988
 31
0.0
  0
LINE
  5
11A
330
1F
100
AcDbEntity
  8
0
  6
Continuous
 62
     7
100
AcDbLine
 10
-114.437225790476
 20
258.462325982988
 30
0.0
 11
-114.437225790476
 21
228.4623259829881
 31
0.0
  0
LINE
  5
11B
330
1F
100
AcDbEntity
  8
0
  6
Continuous
 62
     7
100
AcDbLine
 10
-132.4165747904766
 20
111.6524722457127
 30
0.0
 11
-140.6165747904766
 21
111.6524722457127
 31
0.0
  0
LINE
  5
11C
330
1F
100
AcDbEntity
  8
0
  6
Continuous
 62
     7
100
AcDbLine
 10
-117.7165747904765
 20
111.6524722457127
 30
0.0
 11
-125.9165747904765
 21
111.6524722457127
 31
0.0
  0
LINE
  5
11D
330
1F
100
AcDbEntity
  8
0
  6
Continuous
 62
     7
100
AcDbLine
 10
-114.4567917904763
 20
111.6524722457127
 30
0.0
 11
-117.7165747904765
 21
111.6524722457127
 31
0.0
  0
LINE
  5
11E
330
1F
100
AcDbEntity
  8
0
  6
Continuous
 62
     7
100
AcDbLine
 10
-140.6165747904766
 20
111.6524722457127
 30
0.0
 11
-143.8567917904763
 21
111.6524722457127
 31
0.0
  0
LINE
  5
11F
330
1F
100
AcDbEntity
  8
0
  6
Continuous
 62
     7
100
AcDbLine
 10
-125.9165747904765
 20
111.6524722457127
 30
0.0
 11
-132.4165747904766
 21
111.6524722457127
 31
0.0
  0
LINE
  5
120
330
1F
100
AcDbEntity
  8
0
  6
Continuous
 62
     7
100
AcDbLine
 10
-118.7165747904765
 20
79.65247224571269
 30
0.0
 11
-118.7165747904765
 21
81.65247224571269
 31
0.0
  0
LINE
  5
121
330
1F
100
AcDbEntity
  8
0
  6
Continuous
 62
     7
100
AcDbLine
 10
-114.4567917904763
 20
111.6524722457127
 30
0.0
 11
-114.4567917904763
 21
81.65247224571269
 31
0.0
  0
LINE
  5
122
330
1F
100
AcDbEntity
  8
0
  6
Continuous
 62
     7
100
AcDbLine
 10
-124.9165747904765
 20
81.65247224571269
 30
0.0
 11
-124.9165747904765
 21
79.65247224571269
 31
0.0
  0
LINE
  5
123
330
1F
100
AcDbEntity
  8
0
  6
Continuous
 62
     7
100
AcDbLine
 10
-124.9165747904765
 20
79.65247224571269
 30
0.0
 11
-118.7165747904765
 21
79.65247224571269
 31
0.0
  0
LINE
  5
124
330
1F
100
AcDbEntity
  8
0
  6
Continuous
 62
     7
100
AcDbLine
 10
-139.6165747904766
 20
79.65247224571269
 30
0.0
 11
-133.4165747904766
 21
79.65247224571269
 31
0.0
  0
LINE
  5
125
330
1F
100
AcDbEntity
  8
0
  6
Continuous
 62
     7
100
AcDbLine
 10
-133.4165747904766
 20
79.65247224571269
 30
0.0
 11
-133.4165747904766
 21
81.65247224571269
 31
0.0
  0
LINE
  5
126
330
1F
100
AcDbEntity
  8
0
  6
Continuous
 62
     7
100
AcDbLine
 10
-143.8567917904763
 20
84.65247224571269
 30
0.0
 11
-143.8567917904763
 21
81.65247224571269
 31
0.0
  0
LINE
  5
127
330
1F
100
AcDbEntity
  8
0
  6
Continuous
 62
     7
100
AcDbLine
 10
-139.6165747904766
 20
81.65247224571269
 30
0.0
 11
-139.6165747904766
 21
79.65247224571269
 31
0.0
  0
LINE
  5
128
330
1F
100
AcDbEntity
  8
0
  6
Continuous
 62
     7
100
AcDbLine
 10
-140.6165747904766
 20
113.6524722457127
 30
0.0
 11
-140.6165747904766
 21
111.6524722457127
 31
0.0
  0
LINE
  5
129
330
1F
100
AcDbEntity
  8
0
  6
Continuous
 62
     7
100
AcDbLine
 10
-143.8567917904763
 20
108.6524722457127
 30
0.0
 11
-143.8567917904763
 21
111.6524722457127
 31
0.0
  0
LINE
  5
12A
330
1F
100
AcDbEntity
  8
0
  6
Continuous
 62
     7
100
AcDbLine
 10
-143.8567917904763
 20
108.6524722457127
 30
0.0
 11
-143.8567917904765
 21
107.9967324687966
 31
0.0
  0
LINE
  5
12B
330
1F
100
AcDbEntity
  8
0
  6
Continuous
 62
     7
100
AcDbLine
 10
-132.4165747904766
 20
111.6524722457127
 30
0.0
 11
-132.4165747904766
 21
113.6524722457127
 31
0.0
  0
LINE
  5
12C
330
1F
100
AcDbEntity
  8
0
  6
Continuous
 62
     7
100
AcDbLine
 10
-132.4165747904766
 20
113.6524722457127
 30
0.0
 11
-140.6165747904766
 21
113.6524722457127
 31
0.0
  0
LINE
  5
12D
330
1F
100
AcDbEntity
  8
0
  6
Continuous
 62
     7
100
AcDbLine
 10
-115.4567917904765
 20
105.1024722457128
 30
0.0
 11
-115.4567917904765
 21
108.2024722457126
 31
0.0
  0
LINE
  5
12E
330
1F
100
AcDbEntity
  8
0
  6
Continuous
 62
     7
100
AcDbLine
 10
-114.4567917904763
 20
102.9024722457127
 30
0.0
 11
-115.5567917904765
 21
102.9024722457127
 31
0.0
  0
LINE
  5
12F
330
1F
100
AcDbEntity
  8
0
  6
Continuous
 62
     7
100
AcDbLine
 10
-115.5567917904765
 20
102.9024722457127
 30
0.0
 11
-115.5567917904765
 21
90.40247224571269
 31
0.0
  0
LINE
  5
130
330
1F
100
AcDbEntity
  8
0
  6
Continuous
 62
     7
100
AcDbLine
 10
-115.5567917904765
 20
90.40247224571269
 30
0.0
 11
-114.4567917904763
 21
90.40247224571269
 31
0.0
  0
LINE
  5
131
330
1F
100
AcDbEntity
  8
0
  6
Continuous
 62
     7
100
AcDbLine
 10
-142.9567917904763
 20
84.65247224571269
 30
0.0
 11
-143.8567917904763
 21
84.65247224571269
 31
0.0
  0
LINE
  5
132
330
1F
100
AcDbEntity
  8
0
  6
Continuous
 62
     7
100
AcDbLine
 10
-143.8567917904763
 20
102.9024722457127
 30
0.0
 11
-143.8567917904765
 21
105.3082120226287
 31
0.0
  0
LINE
  5
133
330
1F
100
AcDbEntity
  8
0
  6
Continuous
 62
     7
100
AcDbLine
 10
-143.8567917904763
 20
90.40247224571269
 30
0.0
 11
-143.8567917904763
 21
102.9024722457127
 31
0.0
  0
LINE
  5
134
330
1F
100
AcDbEntity
  8
0
  6
Continuous
 62
     7
100
AcDbLine
 10
-143.8567917904765
 20
85.30821202262868
 30
0.0
 11
-143.8567917904763
 21
84.65247224571269
 31
0.0
  0
LINE
  5
135
330
1F
100
AcDbEntity
  8
0
  6
Continuous
 62
     7
100
AcDbLine
 10
-143.8567917904765
 20
87.99673246879658
 30
0.0
 11
-143.8567917904763
 21
90.40247224571269
 31
0.0
  0
LINE
  5
136
330
1F
100
AcDbEntity
  8
0
  6
Continuous
 62
     7
100
AcDbLine
 10
-143.8567917904763
 20
90.40247224571269
 30
0.0
 11
-142.7567917904764
 21
90.40247224571269
 31
0.0
  0
LINE
  5
137
330
1F
100
AcDbEntity
  8
0
  6
Continuous
 62
     7
100
AcDbLine
 10
-142.7567917904764
 20
90.40247224571269
 30
0.0
 11
-142.7567917904764
 21
102.9024722457127
 31
0.0
  0
LINE
  5
138
330
1F
100
AcDbEntity
  8
0
  6
Continuous
 62
     7
100
AcDbLine
 10
-142.7567917904764
 20
102.9024722457127
 30
0.0
 11
-143.8567917904763
 21
102.9024722457127
 31
0.0
  0
LINE
  5
139
330
1F
100
AcDbEntity
  8
0
  6
Continuous
 62
     7
100
AcDbLine
 10
-124.9165747904765
 20
81.65247224571269
 30
0.0
 11
-133.4165747904766
 21
81.65247224571269
 31
0.0
  0
LINE
  5
13A
330
1F
100
AcDbEntity
  8
0
  6
Continuous
 62
     7
100
AcDbLine
 10
-133.4165747904766
 20
81.65247224571269
 30
0.0
 11
-139.6165747904766
 21
81.65247224571269
 31
0.0
  0
LINE
  5
13B
330
1F
100
AcDbEntity
  8
0
  6
Continuous
 62
     7
100
AcDbLine
 10
-139.6165747904766
 20
81.65247224571269
 30
0.0
 11
-143.8567917904763
 21
81.65247224571269
 31
0.0
  0
LINE
  5
13C
330
1F
100
AcDbEntity
  8
0
  6
Continuous
 62
     7
100
AcDbLine
 10
-118.7165747904765
 20
81.65247224571269
 30
0.0
 11
-124.9165747904765
 21
81.65247224571269
 31
0.0
  0
LINE
  5
13D
330
1F
100
AcDbEntity
  8
0
  6
Continuous
 62
     7
100
AcDbLine
 10
-114.4567917904763
 20
81.65247224571269
 30
0.0
 11
-118.7165747904765
 21
81.65247224571269
 31
0.0
  0
LINE
  5
13E
330
1F
100
AcDbEntity
  8
0
  6
Continuous
 62
     7
100
AcDbLine
 10
-117.7165747904765
 20
113.6524722457127
 30
0.0
 11
-125.9165747904765
 21
113.6524722457127
 31
0.0
  0
LINE
  5
13F
330
1F
100
AcDbEntity
  8
0
  6
Continuous
 62
     7
100
AcDbLine
 10
-125.9165747904765
 20
113.6524722457127
 30
0.0
 11
-125.9165747904765
 21
111.6524722457127
 31
0.0
  0
LINE
  5
140
330
1F
100
AcDbEntity
  8
0
  6
Continuous
 62
     7
100
AcDbLine
 10
-117.7165747904765
 20
111.6524722457127
 30
0.0
 11
-117.7165747904765
 21
113.6524722457127
 31
0.0
  0
LINE
  5
141
330
1F
100
AcDbEntity
  8
0
  6
Continuous
 62
     7
100
AcDbLine
 10
-120.5067917904696
 20
99.60247224571279
 30
0.0
 11
-120.2801605844378
 21
99.60247224571262
 31
0.0
  0
LINE
  5
142
330
1F
100
AcDbEntity
  8
0
  6
Continuous
 62
     7
100
AcDbLine
 10
-116.833422996515
 20
99.60247224571262
 30
0.0
 11
-116.6067917904765
 21
99.60247224571279
 31
0.0
  0
LINE
  5
143
330
1F
100
AcDbEntity
  8
0
  6
Continuous
 62
     7
100
AcDbLine
 10
-121.9067917904764
 20
100.7024722457128
 30
0.0
 11
-122.133422996515
 21
100.7024722457126
 31
0.0
  0
LINE
  5
144
330
1F
100
AcDbEntity
  8
0
  6
Continuous
 62
     7
100
AcDbLine
 10
-138.033422996515
 20
99.60247224571262
 30
0.0
 11
-137.8067917904832
 21
99.60247224571279
 31
0.0
  0
LINE
  5
145
330
1F
100
AcDbEntity
  8
0
  6
Continuous
 62
     7
100
AcDbLine
 10
-131.1067917904696
 20
99.60247224571279
 30
0.0
 11
-130.8801605844378
 21
99.60247224571262
 31
0.0
  0
LINE
  5
146
330
1F
100
AcDbEntity
  8
0
  6
Continuous
 62
     7
100
AcDbLine
 10
-127.433422996515
 20
99.60247224571262
 30
0.0
 11
-127.2067917904833
 21
99.60247224571262
 31
0.0
  0
LINE
  5
147
330
1F
100
AcDbEntity
  8
0
  6
Continuous
 62
     7
100
AcDbLine
 10
-141.7067917904697
 20
99.60247224571279
 30
0.0
 11
-141.4801605844378
 21
99.60247224571262
 31
0.0
  0
LINE
  5
148
330
1F
100
AcDbEntity
  8
0
  6
Continuous
 62
     7
100
AcDbLine
 10
-136.4067917904764
 20
100.7024722457128
 30
0.0
 11
-136.4067917904764
 21
99.33802346099648
 31
0.0
  0
LINE
  5
149
330
1F
100
AcDbEntity
  8
0
  6
Continuous
 62
     7
100
AcDbLine
 10
-136.4067917904764
 20
99.33802346099648
 30
0.0
 11
-136.4067917904764
 21
98.82401127662999
 31
0.0
  0
LINE
  5
14A
330
1F
100
AcDbEntity
  8
0
  6
Continuous
 62
     7
100
AcDbLine
 10
-121.9067917904764
 20
99.33802346099648
 30
0.0
 11
-121.9067917904764
 21
100.7024722457128
 31
0.0
  0
LINE
  5
14B
330
1F
100
AcDbEntity
  8
0
  6
Continuous
 62
     7
100
AcDbLine
 10
-143.8567917904764
 20
93.90247224571269
 30
0.0
 11
-143.8567917904765
 21
99.40247224571269
 31
0.0
  0
LINE
  5
14C
330
1F
100
AcDbEntity
  8
0
  6
Continuous
 62
     7
100
AcDbLine
 10
-122.6578339096481
 20
110.5524722457125
 30
0.0
 11
-115.4567917904764
 21
110.5524722457128
 31
0.0
  0
LINE
  5
14D
330
1F
100
AcDbEntity
  8
0
  6
Continuous
 62
     7
100
AcDbLine
 10
-115.4567917904764
 20
110.5524722457128
 30
0.0
 11
-115.4567917904763
 21
104.6524722457127
 31
0.0
  0
LINE
  5
14E
330
1F
100
AcDbEntity
  8
0
  6
Continuous
 62
     7
100
AcDbLine
 10
-142.8567917904765
 20
110.5524722457128
 30
0.0
 11
-135.6557496713045
 21
110.5524722457125
 31
0.0
  0
LINE
  5
14F
330
1F
100
AcDbEntity
  8
0
  6
Continuous
 62
     7
100
AcDbLine
 10
-125.6567917904764
 20
110.5524722457128
 30
0.0
 11
-125.0557496713046
 21
110.5524722457125
 31
0.0
  0
LINE
  5
150
330
1F
100
AcDbEntity
  8
0
  6
Continuous
 62
     7
100
AcDbLine
 10
-133.2578339096483
 20
110.5524722457125
 30
0.0
 11
-132.1567917904764
 21
110.5524722457128
 31
0.0
  0
LINE
  5
151
330
1F
100
AcDbEntity
  8
0
  6
Continuous
 62
     7
100
AcDbLine
 10
-142.8567917904765
 20
104.6524722457127
 30
0.0
 11
-142.8567917904765
 21
110.5524722457128
 31
0.0
  0
LINE
  5
152
330
1F
100
AcDbEntity
  8
0
  6
Continuous
 62
     7
100
AcDbLine
 10
-132.5067917904764
 20
105.7240112766301
 30
0.0
 11
-132.5067917904764
 21
106.2380234609963
 31
0.0
  0
LINE
  5
153
330
1F
100
AcDbEntity
  8
0
  6
Continuous
 62
     7
100
AcDbLine
 10
-132.5067917904764
 20
106.2380234609963
 30
0.0
 11
-132.5067917904764
 21
107.6024722457128
 31
0.0
  0
LINE
  5
154
330
1F
100
AcDbEntity
  8
0
  6
Continuous
 62
     7
100
AcDbLine
 10
-125.8067917904765
 20
106.2380234609963
 30
0.0
 11
-125.8067917904765
 21
105.7240112766301
 31
0.0
  0
LINE
  5
155
330
1F
100
AcDbEntity
  8
0
  6
Continuous
 62
     7
100
AcDbLine
 10
-125.8067917904765
 20
107.6024722457128
 30
0.0
 11
-125.8067917904765
 21
106.2380234609963
 31
0.0
  0
LINE
  5
156
330
1F
100
AcDbEntity
  8
0
  6
Continuous
 62
     7
100
AcDbLine
 10
-121.9067917904764
 20
105.7240112766301
 30
0.0
 11
-121.9067917904764
 21
106.2380234609963
 31
0.0
  0
LINE
  5
157
330
1F
100
AcDbEntity
  8
0
  6
Continuous
 62
     7
100
AcDbLine
 10
-121.9067917904764
 20
106.2380234609963
 30
0.0
 11
-121.9067917904764
 21
107.6024722457126
 31
0.0
  0
LINE
  5
158
330
1F
100
AcDbEntity
  8
0
  6
Continuous
 62
     7
100
AcDbLine
 10
-136.4067917904764
 20
105.7240112766301
 30
0.0
 11
-136.4067917904764
 21
106.2380234609963
 31
0.0
  0
LINE
  5
159
330
1F
100
AcDbEntity
  8
0
  6
Continuous
 62
     7
100
AcDbLine
 10
-136.4067917904764
 20
106.2380234609963
 30
0.0
 11
-136.4067917904764
 21
107.6024722457128
 31
0.0
  0
LINE
  5
15A
330
1F
100
AcDbEntity
  8
0
  6
Continuous
 62
     7
100
AcDbLine
 10
-141.7067917904763
 20
108.3809332147952
 30
0.0
 11
-141.7067917904763
 21
107.866921030429
 31
0.0
  0
LINE
  5
15B
330
1F
100
AcDbEntity
  8
0
  6
Continuous
 62
     7
100
AcDbLine
 10
-141.7067917904763
 20
107.866921030429
 30
0.0
 11
-141.7067917904764
 21
106.5024722457129
 31
0.0
  0
LINE
  5
15C
330
1F
100
AcDbEntity
  8
0
  6
Continuous
 62
     7
100
AcDbLine
 10
-141.7067917904764
 20
106.5024722457129
 30
0.0
 11
-141.4801605844378
 21
106.5024722457126
 31
0.0
  0
LINE
  5
15D
330
1F
100
AcDbEntity
  8
0
  6
Continuous
 62
     7
100
AcDbLine
 10
-137.8067917904765
 20
107.866921030429
 30
0.0
 11
-137.8067917904765
 21
108.3809332147952
 31
0.0
  0
LINE
  5
15E
330
1F
100
AcDbEntity
  8
0
  6
Continuous
 62
     7
100
AcDbLine
 10
-136.1801605844378
 20
107.6024722457126
 30
0.0
 11
-136.4067917904764
 21
107.6024722457128
 31
0.0
  0
LINE
  5
15F
330
1F
100
AcDbEntity
  8
0
  6
Continuous
 62
     7
100
AcDbLine
 10
-132.5067917904764
 20
107.6024722457128
 30
0.0
 11
-132.7334229965149
 21
107.6024722457126
 31
0.0
  0
LINE
  5
160
330
1F
100
AcDbEntity
  8
0
  6
Continuous
 62
     7
100
AcDbLine
 10
-138.033422996515
 20
106.5024722457126
 30
0.0
 11
-137.8067917904832
 21
106.5024722457129
 31
0.0
  0
LINE
  5
161
330
1F
100
AcDbEntity
  8
0
  6
Continuous
 62
     7
100
AcDbLine
 10
-116.6067917904764
 20
107.866921030429
 30
0.0
 11
-116.6067917904764
 21
108.3809332147952
 31
0.0
  0
LINE
  5
162
330
1F
100
AcDbEntity
  8
0
  6
Continuous
 62
     7
100
AcDbLine
 10
-120.5067917904764
 20
108.3809332147952
 30
0.0
 11
-120.5067917904764
 21
107.866921030429
 31
0.0
  0
LINE
  5
163
330
1F
100
AcDbEntity
  8
0
  6
Continuous
 62
     7
100
AcDbLine
 10
-125.5801605844378
 20
107.6024722457126
 30
0.0
 11
-125.8067917904765
 21
107.6024722457128
 31
0.0
  0
LINE
  5
164
330
1F
100
AcDbEntity
  8
0
  6
Continuous
 62
     7
100
AcDbLine
 10
-121.9067917904764
 20
107.6024722457126
 30
0.0
 11
-122.133422996515
 21
107.6024722457126
 31
0.0
  0
LINE
  5
165
330
1F
100
AcDbEntity
  8
0
  6
Continuous
 62
     7
100
AcDbLine
 10
-120.5067917904697
 20
106.5024722457129
 30
0.0
 11
-120.2801605844391
 21
106.5024722457129
 31
0.0
  0
LINE
  5
166
330
1F
100
AcDbEntity
  8
0
  6
Continuous
 62
     7
100
AcDbLine
 10
-131.1067917904696
 20
106.5024722457129
 30
0.0
 11
-130.8801605844378
 21
106.5024722457126
 31
0.0
  0
LINE
  5
167
330
1F
100
AcDbEntity
  8
0
  6
Continuous
 62
     7
100
AcDbLine
 10
-127.433422996515
 20
106.5024722457126
 30
0.0
 11
-127.2067917904763
 21
106.5024722457126
 31
0.0
  0
LINE
  5
168
330
1F
100
AcDbEntity
  8
0
  6
Continuous
 62
     7
100
AcDbLine
 10
-116.833422996515
 20
106.5024722457126
 30
0.0
 11
-116.6067917904765
 21
106.5024722457129
 31
0.0
  0
LINE
  5
169
330
1F
100
AcDbEntity
  8
0
  6
Continuous
 62
     7
100
AcDbLine
 10
-120.5067917904764
 20
107.866921030429
 30
0.0
 11
-120.5067917904697
 21
106.5024722457129
 31
0.0
  0
LINE
  5
16A
330
1F
100
AcDbEntity
  8
0
  6
Continuous
 62
     7
100
AcDbLine
 10
-116.6067917904765
 20
106.5024722457129
 30
0.0
 11
-116.6067917904764
 21
107.866921030429
 31
0.0
  0
LINE
  5
16B
330
1F
100
AcDbEntity
  8
0
  6
Continuous
 62
     7
100
AcDbLine
 10
-137.8067917904832
 20
106.5024722457129
 30
0.0
 11
-137.8067917904765
 21
107.866921030429
 31
0.0
  0
LINE
  5
16C
330
1F
100
AcDbEntity
  8
0
  6
Continuous
 62
     7
100
AcDbLine
 10
-131.1067917904696
 20
93.70247224571258
 30
0.0
 11
-131.1067917904764
 21
92.33802346099648
 31
0.0
  0
LINE
  5
16D
330
1F
100
AcDbEntity
  8
0
  6
Continuous
 62
     7
100
AcDbLine
 10
-132.5067917904764
 20
85.70247224571258
 30
0.0
 11
-132.5067917904764
 21
87.06692103042869
 31
0.0
  0
LINE
  5
16E
330
1F
100
AcDbEntity
  8
0
  6
Continuous
 62
     7
100
AcDbLine
 10
-132.1567917904764
 20
110.5524722457128
 30
0.0
 11
-132.1567917904764
 21
110.8524722457128
 31
0.0
  0
LINE
  5
16F
330
1F
100
AcDbEntity
  8
0
  6
Continuous
 62
     7
100
AcDbLine
 10
-143.8567917904765
 20
99.40247224571269
 30
0.0
 11
-143.8567917904763
 21
104.6524722457127
 31
0.0
  0
LINE
  5
170
330
1F
100
AcDbEntity
  8
0
  6
Continuous
 62
     7
100
AcDbLine
 10
-143.8567917904763
 20
104.6524722457127
 30
0.0
 11
-142.8567917904765
 21
104.6524722457127
 31
0.0
  0
LINE
  5
171
330
1F
100
AcDbEntity
  8
0
  6
Continuous
 62
     7
100
AcDbLine
 10
-143.8567917904765
 20
99.40247224571269
 30
0.0
 11
-142.8567917904765
 21
99.40247224571269
 31
0.0
  0
LINE
  5
172
330
1F
100
AcDbEntity
  8
0
  6
Continuous
 62
     7
100
AcDbLine
 10
-116.6067917904764
 20
100.9669210304289
 30
0.0
 11
-116.6067917904764
 21
101.4809332147954
 31
0.0
  0
LINE
  5
173
330
1F
100
AcDbEntity
  8
0
  6
Continuous
 62
     7
100
AcDbLine
 10
-120.5067917904764
 20
101.4809332147954
 30
0.0
 11
-120.5067917904764
 21
100.9669210304289
 31
0.0
  0
LINE
  5
174
330
1F
100
AcDbEntity
  8
0
  6
Continuous
 62
     7
100
AcDbLine
 10
-136.1801605844378
 20
100.7024722457126
 30
0.0
 11
-136.4067917904764
 21
100.7024722457128
 31
0.0
  0
LINE
  5
175
330
1F
100
AcDbEntity
  8
0
  6
Continuous
 62
     7
100
AcDbLine
 10
-132.5067917904764
 20
100.7024722457126
 30
0.0
 11
-132.7334229965149
 21
100.7024722457126
 31
0.0
  0
LINE
  5
176
330
1F
100
AcDbEntity
  8
0
  6
Continuous
 62
     7
100
AcDbLine
 10
-137.8067917904765
 20
100.9669210304289
 30
0.0
 11
-137.8067917904765
 21
101.4809332147954
 31
0.0
  0
LINE
  5
177
330
1F
100
AcDbEntity
  8
0
  6
Continuous
 62
     7
100
AcDbLine
 10
-137.8067917904832
 20
99.60247224571279
 30
0.0
 11
-137.8067917904765
 21
100.9669210304289
 31
0.0
  0
LINE
  5
178
330
1F
100
AcDbEntity
  8
0
  6
Continuous
 62
     7
100
AcDbLine
 10
-141.7067917904763
 20
101.4809332147954
 30
0.0
 11
-141.7067917904763
 21
100.9669210304289
 31
0.0
  0
LINE
  5
179
330
1F
100
AcDbEntity
  8
0
  6
Continuous
 62
     7
100
AcDbLine
 10
-141.7067917904763
 20
100.9669210304289
 30
0.0
 11
-141.7067917904697
 21
99.60247224571279
 31
0.0
  0
LINE
  5
17A
330
1F
100
AcDbEntity
  8
0
  6
Continuous
 62
     7
100
AcDbLine
 10
-116.6067917904765
 20
99.60247224571279
 30
0.0
 11
-116.6067917904764
 21
100.9669210304289
 31
0.0
  0
LINE
  5
17B
330
1F
100
AcDbEntity
  8
0
  6
Continuous
 62
     7
100
AcDbLine
 10
-120.5067917904764
 20
100.9669210304289
 30
0.0
 11
-120.5067917904696
 21
99.60247224571279
 31
0.0
  0
LINE
  5
17C
330
1F
100
AcDbEntity
  8
0
  6
Continuous
 62
     7
100
AcDbLine
 10
-125.8067917904765
 20
87.5809332147953
 30
0.0
 11
-125.8067917904765
 21
87.06692103042869
 31
0.0
  0
LINE
  5
17D
330
1F
100
AcDbEntity
  8
0
  6
Continuous
 62
     7
100
AcDbLine
 10
-125.5801605844378
 20
100.7024722457126
 30
0.0
 11
-125.8067917904765
 21
100.7024722457128
 31
0.0
  0
LINE
  5
17E
330
1F
100
AcDbEntity
  8
0
  6
Continuous
 62
     7
100
AcDbLine
 10
-125.8067917904765
 20
94.48093321479539
 30
0.0
 11
-125.8067917904765
 21
93.96692103042889
 31
0.0
  0
LINE
  5
17F
330
1F
100
AcDbEntity
  8
0
  6
Continuous
 62
     7
100
AcDbLine
 10
-127.2067917904833
 20
99.60247224571262
 30
0.0
 11
-127.2067917904763
 21
100.9669210304289
 31
0.0
  0
LINE
  5
180
330
1F
100
AcDbEntity
  8
0
  6
Continuous
 62
     7
100
AcDbLine
 10
-125.8067917904765
 20
93.96692103042889
 30
0.0
 11
-125.8067917904765
 21
92.60247224571262
 31
0.0
  0
LINE
  5
181
330
1F
100
AcDbEntity
  8
0
  6
Continuous
 62
     7
100
AcDbLine
 10
-125.8067917904765
 20
100.7024722457128
 30
0.0
 11
-125.8067917904765
 21
99.33802346099648
 31
0.0
  0
LINE
  5
182
330
1F
100
AcDbEntity
  8
0
  6
Continuous
 62
     7
100
AcDbLine
 10
-125.8067917904765
 20
87.06692103042869
 30
0.0
 11
-125.8067917904765
 21
85.70247224571258
 31
0.0
  0
LINE
  5
183
330
1F
100
AcDbEntity
  8
0
  6
Continuous
 62
     7
100
AcDbLine
 10
-132.1567917904764
 20
82.75247224571288
 30
0.0
 11
-133.2578339096483
 21
82.75247224571248
 31
0.0
  0
LINE
  5
184
330
1F
100
AcDbEntity
  8
0
  6
Continuous
 62
     7
100
AcDbLine
 10
-132.5067917904764
 20
87.06692103042869
 30
0.0
 11
-132.5067917904764
 21
87.5809332147953
 31
0.0
  0
LINE
  5
185
330
1F
100
AcDbEntity
  8
0
  6
Continuous
 62
     7
100
AcDbLine
 10
-132.1567917904764
 20
82.75247224571288
 30
0.0
 11
-132.1567917904764
 21
82.45247224571281
 31
0.0
  0
LINE
  5
186
330
1F
100
AcDbEntity
  8
0
  6
Continuous
 62
     7
100
AcDbLine
 10
-115.4567917904763
 20
82.75247224571248
 30
0.0
 11
-122.6578339096484
 21
82.75247224571248
 31
0.0
  0
LINE
  5
187
330
1F
100
AcDbEntity
  8
0
  6
Continuous
 62
     7
100
AcDbLine
 10
-115.4567917904763
 20
88.65247224571269
 30
0.0
 11
-115.4567917904763
 21
82.75247224571248
 31
0.0
  0
LINE
  5
188
330
1F
100
AcDbEntity
  8
0
  6
Continuous
 62
     7
100
AcDbLine
 10
-125.0557496713046
 20
82.75247224571248
 30
0.0
 11
-125.6567917904764
 21
82.75247224571288
 31
0.0
  0
LINE
  5
189
330
1F
100
AcDbEntity
  8
0
  6
Continuous
 62
     7
100
AcDbLine
 10
-121.9067917904764
 20
87.06692103042869
 30
0.0
 11
-121.9067917904764
 21
87.5809332147953
 31
0.0
  0
LINE
  5
18A
330
1F
100
AcDbEntity
  8
0
  6
Continuous
 62
     7
100
AcDbLine
 10
-121.9067917904764
 20
85.70247224571258
 30
0.0
 11
-121.9067917904764
 21
87.06692103042869
 31
0.0
  0
LINE
  5
18B
330
1F
100
AcDbEntity
  8
0
  6
Continuous
 62
     7
100
AcDbLine
 10
-116.6067917904764
 20
84.92401127662978
 30
0.0
 11
-116.6067917904764
 21
85.43802346099639
 31
0.0
  0
LINE
  5
18C
330
1F
100
AcDbEntity
  8
0
  6
Continuous
 62
     7
100
AcDbLine
 10
-116.6067917904764
 20
85.43802346099639
 30
0.0
 11
-116.6067917904764
 21
86.8024722457125
 31
0.0
  0
LINE
  5
18D
330
1F
100
AcDbEntity
  8
0
  6
Continuous
 62
     7
100
AcDbLine
 10
-120.5067917904764
 20
85.43802346099639
 30
0.0
 11
-120.5067917904763
 21
84.92401127662978
 31
0.0
  0
LINE
  5
18E
330
1F
100
AcDbEntity
  8
0
  6
Continuous
 62
     7
100
AcDbLine
 10
-127.2067917904765
 20
84.92401127662978
 30
0.0
 11
-127.2067917904763
 21
85.43802346099639
 31
0.0
  0
LINE
  5
18F
330
1F
100
AcDbEntity
  8
0
  6
Continuous
 62
     7
100
AcDbLine
 10
-127.2067917904763
 20
85.43802346099639
 30
0.0
 11
-127.2067917904764
 21
86.80247224571272
 31
0.0
  0
LINE
  5
190
330
1F
100
AcDbEntity
  8
0
  6
Continuous
 62
     7
100
AcDbLine
 10
-122.133422996515
 20
85.70247224571258
 30
0.0
 11
-121.9067917904764
 21
85.70247224571258
 31
0.0
  0
LINE
  5
191
330
1F
100
AcDbEntity
  8
0
  6
Continuous
 62
     7
100
AcDbLine
 10
-125.8067917904765
 20
85.70247224571258
 30
0.0
 11
-125.5801605844378
 21
85.70247224571258
 31
0.0
  0
LINE
  5
192
330
1F
100
AcDbEntity
  8
0
  6
Continuous
 62
     7
100
AcDbLine
 10
-116.6067917904764
 20
86.8024722457125
 30
0.0
 11
-116.833422996515
 21
86.8024722457125
 31
0.0
  0
LINE
  5
193
330
1F
100
AcDbEntity
  8
0
  6
Continuous
 62
     7
100
AcDbLine
 10
-120.2801605844378
 20
86.8024722457125
 30
0.0
 11
-120.5067917904696
 21
86.8024722457125
 31
0.0
  0
LINE
  5
194
330
1F
100
AcDbEntity
  8
0
  6
Continuous
 62
     7
100
AcDbLine
 10
-131.1067917904764
 20
85.43802346099639
 30
0.0
 11
-131.1067917904763
 21
84.92401127662978
 31
0.0
  0
LINE
  5
195
330
1F
100
AcDbEntity
  8
0
  6
Continuous
 62
     7
100
AcDbLine
 10
-130.8801605844378
 20
86.8024722457125
 30
0.0
 11
-131.1067917904764
 21
86.8024722457125
 31
0.0
  0
LINE
  5
196
330
1F
100
AcDbEntity
  8
0
  6
Continuous
 62
     7
100
AcDbLine
 10
-127.2067917904764
 20
86.80247224571272
 30
0.0
 11
-127.433422996515
 21
86.8024722457125
 31
0.0
  0
LINE
  5
197
330
1F
100
AcDbEntity
  8
0
  6
Continuous
 62
     7
100
AcDbLine
 10
-131.1067917904764
 20
86.8024722457125
 30
0.0
 11
-131.1067917904764
 21
85.43802346099639
 31
0.0
  0
LINE
  5
198
330
1F
100
AcDbEntity
  8
0
  6
Continuous
 62
     7
100
AcDbLine
 10
-120.5067917904696
 20
86.8024722457125
 30
0.0
 11
-120.5067917904764
 21
85.43802346099639
 31
0.0
  0
LINE
  5
199
330
1F
100
AcDbEntity
  8
0
  6
Continuous
 62
     7
100
AcDbLine
 10
-143.8567917904764
 20
93.90247224571269
 30
0.0
 11
-143.8567917904763
 21
88.65247224571269
 31
0.0
  0
LINE
  5
19A
330
1F
100
AcDbEntity
  8
0
  6
Continuous
 62
     7
100
AcDbLine
 10
-143.8567917904764
 20
93.90247224571269
 30
0.0
 11
-142.8567917904764
 21
93.90247224571269
 31
0.0
  0
LINE
  5
19B
330
1F
100
AcDbEntity
  8
0
  6
Continuous
 62
     7
100
AcDbLine
 10
-143.8567917904763
 20
88.65247224571269
 30
0.0
 11
-142.8567917904764
 21
88.65247224571269
 31
0.0
  0
LINE
  5
19C
330
1F
100
AcDbEntity
  8
0
  6
Continuous
 62
     7
100
AcDbLine
 10
-142.8567917904764
 20
82.75247224571248
 30
0.0
 11
-142.8567917904764
 21
88.65247224571269
 31
0.0
  0
LINE
  5
19D
330
1F
100
AcDbEntity
  8
0
  6
Continuous
 62
     7
100
AcDbLine
 10
-141.7067917904763
 20
92.33802346099648
 30
0.0
 11
-141.7067917904763
 21
91.82401127662999
 31
0.0
  0
LINE
  5
19E
330
1F
100
AcDbEntity
  8
0
  6
Continuous
 62
     7
100
AcDbLine
 10
-141.7067917904697
 20
93.70247224571281
 30
0.0
 11
-141.7067917904763
 21
92.33802346099648
 31
0.0
  0
LINE
  5
19F
330
1F
100
AcDbEntity
  8
0
  6
Continuous
 62
     7
100
AcDbLine
 10
-137.8067917904832
 20
93.70247224571258
 30
0.0
 11
-138.033422996515
 21
93.70247224571258
 31
0.0
  0
LINE
  5
1A0
330
1F
100
AcDbEntity
  8
0
  6
Continuous
 62
     7
100
AcDbLine
 10
-141.4801605844378
 20
93.70247224571258
 30
0.0
 11
-141.7067917904697
 21
93.70247224571281
 31
0.0
  0
LINE
  5
1A1
330
1F
100
AcDbEntity
  8
0
  6
Continuous
 62
     7
100
AcDbLine
 10
-141.7067917904763
 20
85.43802346099639
 30
0.0
 11
-141.7067917904763
 21
84.92401127663001
 31
0.0
  0
LINE
  5
1A2
330
1F
100
AcDbEntity
  8
0
  6
Continuous
 62
     7
100
AcDbLine
 10
-141.7067917904697
 20
86.80247224571272
 30
0.0
 11
-141.7067917904763
 21
85.43802346099639
 31
0.0
  0
LINE
  5
1A3
330
1F
100
AcDbEntity
  8
0
  6
Continuous
 62
     7
100
AcDbLine
 10
-141.4801605844378
 20
86.8024722457125
 30
0.0
 11
-141.7067917904697
 21
86.80247224571272
 31
0.0
  0
LINE
  5
1A4
330
1F
100
AcDbEntity
  8
0
  6
Continuous
 62
     7
100
AcDbLine
 10
-137.8067917904765
 20
85.43802346099639
 30
0.0
 11
-137.8067917904831
 21
86.8024722457125
 31
0.0
  0
LINE
  5
1A5
330
1F
100
AcDbEntity
  8
0
  6
Continuous
 62
     7
100
AcDbLine
 10
-137.8067917904765
 20
84.92401127663001
 30
0.0
 11
-137.8067917904765
 21
85.43802346099639
 31
0.0
  0
LINE
  5
1A6
330
1F
100
AcDbEntity
  8
0
  6
Continuous
 62
     7
100
AcDbLine
 10
-137.8067917904765
 20
91.82401127662999
 30
0.0
 11
-137.8067917904765
 21
92.33802346099648
 31
0.0
  0
LINE
  5
1A7
330
1F
100
AcDbEntity
  8
0
  6
Continuous
 62
     7
100
AcDbLine
 10
-137.8067917904831
 20
86.8024722457125
 30
0.0
 11
-138.033422996515
 21
86.80247224571272
 31
0.0
  0
LINE
  5
1A8
330
1F
100
AcDbEntity
  8
0
  6
Continuous
 62
     7
100
AcDbLine
 10
-132.7334229965149
 20
85.70247224571258
 30
0.0
 11
-132.5067917904764
 21
85.70247224571258
 31
0.0
  0
LINE
  5
1A9
330
1F
100
AcDbEntity
  8
0
  6
Continuous
 62
     7
100
AcDbLine
 10
-136.4067917904764
 20
87.5809332147953
 30
0.0
 11
-136.4067917904764
 21
87.06692103042869
 31
0.0
  0
LINE
  5
1AA
330
1F
100
AcDbEntity
  8
0
  6
Continuous
 62
     7
100
AcDbLine
 10
-136.4067917904764
 20
85.70247224571258
 30
0.0
 11
-136.1801605844378
 21
85.70247224571258
 31
0.0
  0
LINE
  5
1AB
330
1F
100
AcDbEntity
  8
0
  6
Continuous
 62
     7
100
AcDbLine
 10
-136.4067917904763
 20
94.48093321479539
 30
0.0
 11
-136.4067917904764
 21
93.96692103042889
 31
0.0
  0
LINE
  5
1AC
330
1F
100
AcDbEntity
  8
0
  6
Continuous
 62
     7
100
AcDbLine
 10
-136.4067917904764
 20
87.06692103042869
 30
0.0
 11
-136.4067917904764
 21
85.70247224571258
 31
0.0
  0
LINE
  5
1AD
330
1F
100
AcDbEntity
  8
0
  6
Continuous
 62
     7
100
AcDbLine
 10
-137.8067917904765
 20
92.33802346099648
 30
0.0
 11
-137.8067917904832
 21
93.70247224571258
 31
0.0
  0
LINE
  5
1AE
330
1F
100
AcDbEntity
  8
0
  6
Continuous
 62
     7
100
AcDbLine
 10
-136.4067917904764
 20
93.96692103042889
 30
0.0
 11
-136.4067917904764
 21
92.60247224571262
 31
0.0
  0
LINE
  5
1AF
330
1F
100
AcDbEntity
  8
0
  6
Continuous
 62
     7
100
AcDbLine
 10
-135.6557496713045
 20
82.75247224571248
 30
0.0
 11
-142.8567917904764
 21
82.75247224571248
 31
0.0
  0
LINE
  5
1B0
330
1F
100
AcDbEntity
  8
0
  6
Continuous
 62
     7
100
AcDbLine
 10
-132.5067917904764
 20
99.33802346099648
 30
0.0
 11
-132.5067917904764
 21
100.7024722457126
 31
0.0
  0
LINE
  5
1B1
330
1F
100
AcDbEntity
  8
0
  6
Continuous
 62
     7
100
AcDbLine
 10
-132.5067917904764
 20
98.82401127662999
 30
0.0
 11
-132.5067917904764
 21
99.33802346099648
 31
0.0
  0
LINE
  5
1B2
330
1F
100
AcDbEntity
  8
0
  6
Continuous
 62
     7
100
AcDbLine
 10
-125.8067917904765
 20
99.33802346099648
 30
0.0
 11
-125.8067917904765
 21
98.82401127662999
 31
0.0
  0
LINE
  5
1B3
330
1F
100
AcDbEntity
  8
0
  6
Continuous
 62
     7
100
AcDbLine
 10
-121.9067917904764
 20
98.82401127662999
 30
0.0
 11
-121.9067917904764
 21
99.33802346099648
 31
0.0
  0
LINE
  5
1B4
330
1F
100
AcDbEntity
  8
0
  6
Continuous
 62
     7
100
AcDbLine
 10
-115.4567917904763
 20
93.90247224571269
 30
0.0
 11
-114.4567917904763
 21
93.90247224571269
 31
0.0
  0
LINE
  5
1B5
330
1F
100
AcDbEntity
  8
0
  6
Continuous
 62
     7
100
AcDbLine
 10
-114.4567917904763
 20
99.40247224571269
 30
0.0
 11
-115.4567917904763
 21
99.40247224571269
 31
0.0
  0
LINE
  5
1B6
330
1F
100
AcDbEntity
  8
0
  6
Continuous
 62
     7
100
AcDbLine
 10
-120.5067917904764
 20
93.70247224571281
 30
0.0
 11
-120.5067917904764
 21
92.33802346099648
 31
0.0
  0
LINE
  5
1B7
330
1F
100
AcDbEntity
  8
0
  6
Continuous
 62
     7
100
AcDbLine
 10
-121.9067917904764
 20
93.96692103042889
 30
0.0
 11
-121.9067917904764
 21
94.48093321479539
 31
0.0
  0
LINE
  5
1B8
330
1F
100
AcDbEntity
  8
0
  6
Continuous
 62
     7
100
AcDbLine
 10
-121.9067917904831
 20
92.60247224571279
 30
0.0
 11
-121.9067917904764
 21
93.96692103042889
 31
0.0
  0
LINE
  5
1B9
330
1F
100
AcDbEntity
  8
0
  6
Continuous
 62
     7
100
AcDbLine
 10
-122.133422996515
 20
92.60247224571262
 30
0.0
 11
-121.9067917904831
 21
92.60247224571279
 31
0.0
  0
LINE
  5
1BA
330
1F
100
AcDbEntity
  8
0
  6
Continuous
 62
     7
100
AcDbLine
 10
-132.5067917904764
 20
93.96692103042889
 30
0.0
 11
-132.5067917904764
 21
94.48093321479539
 31
0.0
  0
LINE
  5
1BB
330
1F
100
AcDbEntity
  8
0
  6
Continuous
 62
     7
100
AcDbLine
 10
-132.5067917904764
 20
92.60247224571262
 30
0.0
 11
-132.5067917904764
 21
93.96692103042889
 31
0.0
  0
LINE
  5
1BC
330
1F
100
AcDbEntity
  8
0
  6
Continuous
 62
     7
100
AcDbLine
 10
-131.1067917904764
 20
101.4809332147954
 30
0.0
 11
-131.1067917904764
 21
100.9669210304289
 31
0.0
  0
LINE
  5
1BD
330
1F
100
AcDbEntity
  8
0
  6
Continuous
 62
     7
100
AcDbLine
 10
-131.1067917904764
 20
100.9669210304289
 30
0.0
 11
-131.1067917904696
 21
99.60247224571279
 31
0.0
  0
LINE
  5
1BE
330
1F
100
AcDbEntity
  8
0
  6
Continuous
 62
     7
100
AcDbLine
 10
-131.1067917904763
 20
108.3809332147955
 30
0.0
 11
-131.1067917904764
 21
107.866921030429
 31
0.0
  0
LINE
  5
1BF
330
1F
100
AcDbEntity
  8
0
  6
Continuous
 62
     7
100
AcDbLine
 10
-131.1067917904764
 20
107.866921030429
 30
0.0
 11
-131.1067917904696
 21
106.5024722457129
 31
0.0
  0
LINE
  5
1C0
330
1F
100
AcDbEntity
  8
0
  6
Continuous
 62
     7
100
AcDbLine
 10
-127.2067917904763
 20
100.9669210304289
 30
0.0
 11
-127.2067917904763
 21
101.4809332147954
 31
0.0
  0
LINE
  5
1C1
330
1F
100
AcDbEntity
  8
0
  6
Continuous
 62
     7
100
AcDbLine
 10
-127.2067917904763
 20
107.866921030429
 30
0.0
 11
-127.2067917904765
 21
108.3809332147955
 31
0.0
  0
LINE
  5
1C2
330
1F
100
AcDbEntity
  8
0
  6
Continuous
 62
     7
100
AcDbLine
 10
-127.2067917904763
 20
106.5024722457126
 30
0.0
 11
-127.2067917904763
 21
107.866921030429
 31
0.0
  0
LINE
  5
1C3
330
1F
100
AcDbEntity
  8
0
  6
Continuous
 62
     7
100
AcDbLine
 10
-120.5067917904764
 20
92.33802346099648
 30
0.0
 11
-120.5067917904764
 21
91.82401127662999
 31
0.0
  0
LINE
  5
1C4
330
1F
100
AcDbEntity
  8
0
  6
Continuous
 62
     7
100
AcDbLine
 10
-131.1067917904764
 20
92.33802346099648
 30
0.0
 11
-131.1067917904764
 21
91.82401127662999
 31
0.0
  0
LINE
  5
1C5
330
1F
100
AcDbEntity
  8
0
  6
Continuous
 62
     7
100
AcDbLine
 10
-127.2067917904763
 20
91.82401127662999
 30
0.0
 11
-127.2067917904763
 21
92.33802346099648
 31
0.0
  0
LINE
  5
1C6
330
1F
100
AcDbEntity
  8
0
  6
Continuous
 62
     7
100
AcDbLine
 10
-116.6067917904764
 20
91.82401127662999
 30
0.0
 11
-116.6067917904764
 21
92.33802346099648
 31
0.0
  0
LINE
  5
1C7
330
1F
100
AcDbEntity
  8
0
  6
Continuous
 62
     7
100
AcDbLine
 10
-127.2067917904763
 20
92.33802346099648
 30
0.0
 11
-127.2067917904764
 21
93.70247224571281
 31
0.0
  0
LINE
  5
1C8
330
1F
100
AcDbEntity
  8
0
  6
Continuous
 62
     7
100
AcDbLine
 10
-130.8801605844378
 20
93.70247224571258
 30
0.0
 11
-131.1067917904696
 21
93.70247224571258
 31
0.0
  0
LINE
  5
1C9
330
1F
100
AcDbEntity
  8
0
  6
Continuous
 62
     7
100
AcDbLine
 10
-127.2067917904764
 20
93.70247224571281
 30
0.0
 11
-127.433422996515
 21
93.70247224571258
 31
0.0
  0
LINE
  5
1CA
330
1F
100
AcDbEntity
  8
0
  6
Continuous
 62
     7
100
AcDbLine
 10
-120.2801605844378
 20
93.70247224571258
 30
0.0
 11
-120.5067917904764
 21
93.70247224571281
 31
0.0
  0
LINE
  5
1CB
330
1F
100
AcDbEntity
  8
0
  6
Continuous
 62
     7
100
AcDbLine
 10
-136.4067917904764
 20
92.60247224571262
 30
0.0
 11
-136.1801605844378
 21
92.60247224571262
 31
0.0
  0
LINE
  5
1CC
330
1F
100
AcDbEntity
  8
0
  6
Continuous
 62
     7
100
AcDbLine
 10
-132.7334229965149
 20
92.60247224571262
 30
0.0
 11
-132.5067917904764
 21
92.60247224571262
 31
0.0
  0
LINE
  5
1CD
330
1F
100
AcDbEntity
  8
0
  6
Continuous
 62
     7
100
AcDbLine
 10
-125.8067917904765
 20
92.60247224571262
 30
0.0
 11
-125.5801605844378
 21
92.60247224571262
 31
0.0
  0
LINE
  5
1CE
330
1F
100
AcDbEntity
  8
0
  6
Continuous
 62
     7
100
AcDbLine
 10
-116.6067917904831
 20
93.70247224571258
 30
0.0
 11
-116.833422996515
 21
93.70247224571258
 31
0.0
  0
LINE
  5
1CF
330
1F
100
AcDbEntity
  8
0
  6
Continuous
 62
     7
100
AcDbLine
 10
-116.6067917904764
 20
92.33802346099648
 30
0.0
 11
-116.6067917904831
 21
93.70247224571258
 31
0.0
  0
LINE
  5
1D0
330
1F
100
AcDbEntity
  8
1
  6
Continuous
 62
     7
100
AcDbLine
 10
-126.1557496713047
 20
82.75247224571288
 30
0.0
 11
-125.6567917904764
 21
82.75247224571288
 31
0.0
  0
LINE
  5
1D1
330
1F
100
AcDbEntity
  8
1
  6
Continuous
 62
     7
100
AcDbLine
 10
-126.1557496713047
 20
82.45247224571281
 30
0.0
 11
-126.1557496713047
 21
82.75247224571288
 31
0.0
  0
LINE
  5
1D2
330
1F
100
AcDbEntity
  8
0
  6
Continuous
 62
     7
100
AcDbLine
 10
-132.1567917904764
 20
82.45247224571281
 30
0.0
 11
-126.1557496713047
 21
82.45247224571281
 31
0.0
  0
LINE
  5
1D3
330
1F
100
AcDbEntity
  8
1
  6
Continuous
 62
     7
100
AcDbLine
 10
-126.1557496713047
 20
110.5524722457128
 30
0.0
 11
-125.6567917904764
 21
110.5524722457128
 31
0.0
  0
LINE
  5
1D4
330
1F
100
AcDbEntity
  8
1
  6
Continuous
 62
     7
100
AcDbLine
 10
-126.1557496713047
 20
110.8524722457128
 30
0.0
 11
-126.1557496713047
 21
110.5524722457128
 31
0.0
  0
LINE
  5
1D5
330
1F
100
AcDbEntity
  8
0
  6
Continuous
 62
     7
100
AcDbLine
 10
-132.1567917904764
 20
110.8524722457128
 30
0.0
 11
-126.1557496713047
 21
110.8524722457128
 31
0.0
  0
LINE
  5
1D6
330
1F
100
AcDbEntity
  8
0
  6
Continuous
 62
     7
100
AcDbLine
 10
-114.4567917904763
 20
163.0073320447403
 30
0.0
 11
-114.4567917904763
 21
146.5073320447403
 31
0.0
  0
LINE
  5
1D7
330
1F
100
AcDbEntity
  8
0
  6
Continuous
 62
     7
100
AcDbLine
 10
-116.4567917904763
 20
163.0073320447403
 30
0.0
 11
-114.4567917904763
 21
163.0073320447403
 31
0.0
  0
LINE
  5
1D8
330
1F
100
AcDbEntity
  8
0
  6
Continuous
 62
     7
100
AcDbLine
 10
-114.4567917904763
 20
165.6573320447402
 30
0.0
 11
-116.4567917904763
 21
165.6573320447402
 31
0.0
  0
LINE
  5
1D9
330
1F
100
AcDbEntity
  8
0
  6
Continuous
 62
     7
100
AcDbLine
 10
-114.4567917904763
 20
165.6573320447402
 30
0.0
 11
-114.4567917904763
 21
163.0073320447403
 31
0.0
  0
LINE
  5
1DA
330
1F
100
AcDbEntity
  8
0
  6
Continuous
 62
     7
100
AcDbLine
 10
-127.5567917904764
 20
183.1073320447403
 30
0.0
 11
-130.7567917904762
 21
183.1073320447403
 31
0.0
  0
LINE
  5
1DB
330
1F
100
AcDbEntity
  8
0
  6
Continuous
 62
     7
100
AcDbLine
 10
-127.5567917904764
 20
180.5073320447403
 30
0.0
 11
-127.5567917904764
 21
183.1073320447403
 31
0.0
  0
LINE
  5
1DC
330
1F
100
AcDbEntity
  8
0
  6
Continuous
 62
     7
100
AcDbLine
 10
-130.7567917904762
 20
183.1073320447403
 30
0.0
 11
-130.7567917904762
 21
180.5073320447403
 31
0.0
  0
LINE
  5
1DD
330
1F
100
AcDbEntity
  8
0
  6
Continuous
 62
     7
100
AcDbLine
 10
-124.8970087904762
 20
180.5073320447403
 30
0.0
 11
-118.6970087904763
 21
180.5073320447403
 31
0.0
  0
LINE
  5
1DE
330
1F
100
AcDbEntity
  8
0
  6
Continuous
 62
     7
100
AcDbLine
 10
-143.8567917904764
 20
184.5073320447403
 30
0.0
 11
-114.4567917904763
 21
184.5073320447403
 31
0.0
  0
LINE
  5
1DF
330
1F
100
AcDbEntity
  8
0
  6
Continuous
 62
     7
100
AcDbLine
 10
-119.1970087904763
 20
177.0073320447403
 30
0.0
 11
-124.3970087904762
 21
177.0073320447403
 31
0.0
  0
LINE
  5
1E0
330
1F
100
AcDbEntity
  8
0
  6
Continuous
 62
     7
100
AcDbLine
 10
-143.8567917904764
 20
170.5073320447403
 30
0.0
 11
-143.8567917904764
 21
165.6573320447402
 31
0.0
  0
LINE
  5
1E1
330
1F
100
AcDbEntity
  8
0
  6
Continuous
 62
     7
100
AcDbLine
 10
-143.8567917904764
 20
184.5073320447403
 30
0.0
 11
-143.8567917904764
 21
180.5073320447403
 31
0.0
  0
LINE
  5
1E2
330
1F
100
AcDbEntity
  8
0
  6
Continuous
 62
     7
100
AcDbLine
 10
-143.8567917904764
 20
171.5073320447403
 30
0.0
 11
-143.8567917904764
 21
170.5073320447403
 31
0.0
  0
LINE
  5
1E3
330
1F
100
AcDbEntity
  8
0
  6
Continuous
 62
     7
100
AcDbLine
 10
-143.8567917904764
 20
180.5073320447403
 30
0.0
 11
-143.8567917904764
 21
171.5073320447403
 31
0.0
  0
LINE
  5
1E4
330
1F
100
AcDbEntity
  8
0
  6
Continuous
 62
     7
100
AcDbLine
 10
-143.8567917904764
 20
163.0073320447403
 30
0.0
 11
-143.8567917904764
 21
165.6573320447402
 31
0.0
  0
LINE
  5
1E5
330
1F
100
AcDbEntity
  8
0
  6
Continuous
 62
     7
100
AcDbLine
 10
-143.8567917904764
 20
163.0073320447403
 30
0.0
 11
-143.8567917904764
 21
146.5073320447403
 31
0.0
  0
LINE
  5
1E6
330
1F
100
AcDbEntity
  8
0
  6
Continuous
 62
     7
100
AcDbLine
 10
-141.8567917904764
 20
165.6573320447402
 30
0.0
 11
-143.8567917904764
 21
165.6573320447402
 31
0.0
  0
LINE
  5
1E7
330
1F
100
AcDbEntity
  8
0
  6
Continuous
 62
     7
100
AcDbLine
 10
-143.8567917904764
 20
163.0073320447403
 30
0.0
 11
-141.8567917904764
 21
163.0073320447403
 31
0.0
  0
LINE
  5
1E8
330
1F
100
AcDbEntity
  8
0
  6
Continuous
 62
     7
100
AcDbLine
 10
-143.8567917904764
 20
146.5073320447403
 30
0.0
 11
-114.4567917904763
 21
146.5073320447403
 31
0.0
  0
LINE
  5
1E9
330
1F
100
AcDbEntity
  8
0
  6
Continuous
 62
     7
100
AcDbLine
 10
-141.8567917904764
 20
163.0073320447403
 30
0.0
 11
-141.8567917904764
 21
165.6573320447402
 31
0.0
  0
LINE
  5
1EA
330
1F
100
AcDbEntity
  8
0
  6
Continuous
 62
     7
100
AcDbLine
 10
-139.5970087904763
 20
180.5073320447403
 30
0.0
 11
-133.3970087904763
 21
180.5073320447403
 31
0.0
  0
LINE
  5
1EB
330
1F
100
AcDbEntity
  8
0
  6
Continuous
 62
     7
100
AcDbLine
 10
-124.8970087904762
 20
180.5073320447403
 30
0.0
 11
-124.8970087904762
 21
177.5073320447403
 31
0.0
  0
LINE
  5
1EC
330
1F
100
AcDbEntity
  8
0
  6
Continuous
 62
     7
100
AcDbLine
 10
-139.5970087904763
 20
180.5073320447403
 30
0.0
 11
-139.5970087904763
 21
177.5073320447403
 31
0.0
  0
LINE
  5
1ED
330
1F
100
AcDbEntity
  8
0
  6
Continuous
 62
     7
100
AcDbLine
 10
-116.4567917904763
 20
165.6573320447402
 30
0.0
 11
-116.4567917904763
 21
163.0073320447403
 31
0.0
  0
LINE
  5
1EE
330
1F
100
AcDbEntity
  8
0
  6
Continuous
 62
     7
100
AcDbLine
 10
-118.6970087904763
 20
177.5073320447403
 30
0.0
 11
-118.6970087904763
 21
180.5073320447403
 31
0.0
  0
LINE
  5
1EF
330
1F
100
AcDbEntity
  8
0
  6
Continuous
 62
     7
100
AcDbLine
 10
-133.8970087904764
 20
177.0073320447403
 30
0.0
 11
-139.0970087904763
 21
177.0073320447403
 31
0.0
  0
LINE
  5
1F0
330
1F
100
AcDbEntity
  8
0
  6
Continuous
 62
     7
100
AcDbLine
 10
-131.2567917904762
 20
165.6573320447402
 30
0.0
 11
-131.2567917904762
 21
163.0073320447403
 31
0.0
  0
LINE
  5
1F1
330
1F
100
AcDbEntity
  8
0
  6
Continuous
 62
     7
100
AcDbLine
 10
-131.2567917904762
 20
163.0073320447403
 30
0.0
 11
-127.0567917904764
 21
163.0073320447403
 31
0.0
  0
LINE
  5
1F2
330
1F
100
AcDbEntity
  8
0
  6
Continuous
 62
     7
100
AcDbLine
 10
-130.7567917904762
 20
180.5073320447403
 30
0.0
 11
-127.5567917904764
 21
180.5073320447403
 31
0.0
  0
LINE
  5
1F3
330
1F
100
AcDbEntity
  8
0
  6
Continuous
 62
     7
100
AcDbLine
 10
-127.0567917904764
 20
163.0073320447403
 30
0.0
 11
-127.0567917904764
 21
165.6573320447402
 31
0.0
  0
LINE
  5
1F4
330
1F
100
AcDbEntity
  8
0
  6
Continuous
 62
     7
100
AcDbLine
 10
-127.0567917904764
 20
165.6573320447402
 30
0.0
 11
-131.2567917904762
 21
165.6573320447402
 31
0.0
  0
LINE
  5
1F5
330
1F
100
AcDbEntity
  8
0
  6
Continuous
 62
     7
100
AcDbLine
 10
-133.3970087904764
 20
177.5073320447403
 30
0.0
 11
-133.3970087904763
 21
180.5073320447403
 31
0.0
  0
LINE
  5
1F6
330
1F
100
AcDbEntity
  8
0
  6
Continuous
 62
     7
100
AcDbLine
 10
-114.4567917904763
 20
184.5073320447403
 30
0.0
 11
-114.4567917904763
 21
165.6573320447402
 31
0.0
  0
LINE
  5
1F7
330
1F
100
AcDbEntity
  8
1
  6
Continuous
 62
     7
100
AcDbLine
 10
-189.0
 20
20.0
 30
0.0
 11
-189.0
 21
4.99999999999989
 31
0.0
  0
LINE
  5
1F8
330
1F
100
AcDbEntity
  8
1
  6
Continuous
 62
     7
100
AcDbLine
 10
-49.0
 20
20.00000000000003
 30
0.0
 11
-49.0
 21
5.00000000000002
 31
0.0
  0
LINE
  5
1F9
330
1F
100
AcDbEntity
  8
1
  6
Continuous
 62
     7
100
AcDbLine
 10
-31.6473986225146
 20
20.00000000000003
 30
0.0
 11
-31.6473986225146
 21
5.00000000000002
 31
0.0
  0
LINE
  5
1FA
330
1F
100
AcDbEntity
  8
1
  6
Continuous
 62
     7
100
AcDbLine
 10
-159.0
 20
20.00000000000003
 30
0.0
 11
-159.0
 21
5.00000000000002
 31
0.0
  0
LINE
  5
1FB
330
1F
100
AcDbEntity
  8
1
  6
Continuous
 62
     7
100
AcDbLine
 10
-189.0
 20
12.5
 30
0.0
 11
-159.0
 21
12.50000000000003
 31
0.0
  0
LINE
  5
1FC
330
1F
100
AcDbEntity
  8
1
  6
Continuous
 62
     7
100
AcDbLine
 10
-210.0000000000001
 20
148.4999999999998
 30
0.0
 11
-195.0000000000001
 21
148.4999999999998
 31
0.0
  0
LINE
  5
1FD
330
1F
100
AcDbEntity
  8
1
  6
Continuous
 62
     7
100
AcDbLine
 10
0.0
 20
0.0
 30
0.0
 11
0.0
 21
297.0000000000001
 31
0.0
  0
LINE
  5
1FE
330
1F
100
AcDbEntity
  8
1
  6
Continuous
 62
     7
100
AcDbLine
 10
-210.0000000000001
 20
0.0
 30
0.0
 11
0.0
 21
0.0
 31
0.0
  0
LINE
  5
1FF
330
1F
100
AcDbEntity
  8
1
  6
Continuous
 62
     7
100
AcDbLine
 10
-210.0000000000001
 20
297.0000000000001
 30
0.0
 11
-210.0000000000001
 21
0.0
 31
0.0
  0
LINE
  5
200
330
1F
100
AcDbEntity
  8
1
  6
Continuous
 62
     7
100
AcDbLine
 10
-5.0
 20
4.99999999999991
 30
0.0
 11
-5.0
 21
292.0000000000001
 31
0.0
  0
LINE
  5
201
330
1F
100
AcDbEntity
  8
1
  6
Continuous
 62
     7
100
AcDbLine
 10
-5.0
 20
292.0000000000001
 30
0.0
 11
-189.0
 21
292.0000000000001
 31
0.0
  0
LINE
  5
202
330
1F
100
AcDbEntity
  8
1
  6
Continuous
 62
     7
100
AcDbLine
 10
-189.0
 20
292.0000000000001
 30
0.0
 11
-189.0
 21
4.99999999999989
 31
0.0
  0
LINE
  5
203
102
{ACAD_REACTORS
330
352
102
}
330
1F
100
AcDbEntity
  8
1
  6
Continuous
 62
     7
100
AcDbLine
 10
-15.99036597792389
 20
10.0774998398326
 30
0.0
 11
-15.99036597792389
 21
14.9225001601674
 31
0.0
  0
LINE
  5
204
102
{ACAD_REACTORS
330
34F
102
}
330
1F
100
AcDbEntity
  8
1
  6
Continuous
 62
     7
100
AcDbLine
 10
-17.32369931125729
 20
9.30826907060182
 30
0.0
 11
-17.32369931125729
 21
14.2320508075688
 31
0.0
  0
LINE
  5
205
102
{ACAD_REACTORS
330
34F
102
}
330
1F
100
AcDbEntity
  8
1
  6
Continuous
 62
     7
100
AcDbLine
 10
-17.32369931125729
 20
14.2320508075688
 30
0.0
 11
-18.1793617439599
 21
12.75000000000003
 31
0.0
  0
LINE
  5
206
102
{ACAD_REACTORS
330
34F
102
}
330
1F
100
AcDbEntity
  8
1
  6
Continuous
 62
     7
100
AcDbLine
 10
-18.46803687855478
 20
12.75000000000003
 30
0.0
 11
-19.32369931125729
 21
14.2320508075688
 31
0.0
  0
LINE
  5
207
102
{ACAD_REACTORS
330
34F
102
}
330
1F
100
AcDbEntity
  8
1
  6
Continuous
 62
     7
100
AcDbLine
 10
-19.32369931125729
 20
14.2320508075688
 30
0.0
 11
-19.32369931125729
 21
10.84758507263294
 31
0.0
  0
LINE
  5
208
330
1F
100
AcDbEntity
  8
1
  6
Continuous
 62
     7
100
AcDbLine
 10
-26.74013458639891
 20
12.64436426434131
 30
0.0
 11
-18.32369931125729
 21
17.50000000000003
 31
0.0
  0
LINE
  5
209
330
1F
100
AcDbEntity
  8
1
  6
Continuous
 62
     7
100
AcDbLine
 10
-18.32369931125729
 20
17.50000000000003
 30
0.0
 11
-9.90726403611589
 21
12.64436426434131
 31
0.0
  0
LINE
  5
20A
330
1F
100
AcDbEntity
  8
1
  6
Continuous
 62
     7
100
AcDbLine
 10
-9.90726403611589
 20
12.35563573565864
 30
0.0
 11
-18.32369931125729
 21
7.50000000000003
 31
0.0
  0
LINE
  5
20B
330
1F
100
AcDbEntity
  8
1
  6
Continuous
 62
     7
100
AcDbLine
 10
-18.32369931125729
 20
7.50000000000003
 30
0.0
 11
-26.74013458639891
 21
12.35563573565864
 31
0.0
  0
LINE
  5
20C
102
{ACAD_REACTORS
330
34F
102
}
330
1F
100
AcDbEntity
  8
1
  6
Continuous
 62
     7
100
AcDbLine
 10
-19.99036597792409
 20
10.84758507263294
 30
0.0
 11
-19.99036597792409
 21
15.7312173120346
 31
0.0
  0
LINE
  5
20D
102
{ACAD_REACTORS
330
34F
102
}
330
1F
100
AcDbEntity
  8
1
  6
Continuous
 62
     7
100
AcDbLine
 10
-19.49593229430059
 20
15.86370041827232
 30
0.0
 11
-18.32369931125729
 21
13.83333333333329
 31
0.0
  0
LINE
  5
20E
102
{ACAD_REACTORS
330
34F
102
}
330
1F
100
AcDbEntity
  8
1
  6
Continuous
 62
     7
100
AcDbLine
 10
-16.65703264459069
 20
9.30826907060182
 30
0.0
 11
-16.65703264459069
 21
15.7312173120346
 31
0.0
  0
LINE
  5
20F
102
{ACAD_REACTORS
330
34F
102
}
330
1F
100
AcDbEntity
  8
1
  6
Continuous
 62
     7
100
AcDbLine
 10
-17.15146632821399
 20
15.86370041827232
 30
0.0
 11
-18.32369931125729
 21
13.83333333333329
 31
0.0
  0
LINE
  5
210
102
{ACAD_REACTORS
330
350
102
}
330
1F
100
AcDbEntity
  8
1
  6
Continuous
 62
     7
100
AcDbLine
 10
-21.32369931125729
 20
10.27002114803261
 30
0.0
 11
-21.32369931125729
 21
14.9225001601674
 31
0.0
  0
LINE
  5
211
102
{ACAD_REACTORS
330
350
102
}
330
1F
100
AcDbEntity
  8
1
  6
Continuous
 62
     7
100
AcDbLine
 10
-20.65703264459069
 20
14.9225001601674
 30
0.0
 11
-20.65703264459069
 21
10.27002114803273
 31
0.0
  0
LINE
  5
212
102
{ACAD_REACTORS
330
350
102
}
330
1F
100
AcDbEntity
  8
1
  6
Continuous
 62
     7
100
AcDbLine
 10
-20.65703264459069
 20
10.27002114803273
 30
0.0
 11
-18.4904584934275
 21
9.02007452236163
 31
0.0
  0
LINE
  5
213
102
{ACAD_REACTORS
330
350
102
}
330
1F
100
AcDbEntity
  8
1
  6
Continuous
 62
     7
100
AcDbLine
 10
-18.8236067957539
 20
8.44261746499583
 30
0.0
 11
-20.99018094691701
 21
9.69256409066693
 31
0.0
  0
LINE
  5
214
102
{ACAD_REACTORS
330
351
102
}
330
1F
100
AcDbEntity
  8
1
  6
Continuous
 62
     7
100
AcDbLine
 10
-21.99036597792409
 20
14.15326939093669
 30
0.0
 11
-21.99036597792409
 21
10.84673060906319
 31
0.0
  0
LINE
  5
215
102
{ACAD_REACTORS
330
351
102
}
330
1F
100
AcDbEntity
  8
1
  6
Continuous
 62
     7
100
AcDbLine
 10
-22.65703264459069
 20
10.84673060906319
 30
0.0
 11
-22.65703264459069
 21
14.15326939093669
 31
0.0
  0
LINE
  5
216
102
{ACAD_REACTORS
330
352
102
}
330
1F
100
AcDbEntity
  8
1
  6
Continuous
 62
     7
100
AcDbLine
 10
-15.4904584934275
 20
15.2112286888503
 30
0.0
 11
-14.15712516009418
 21
14.4419979196194
 31
0.0
  0
LINE
  5
217
102
{ACAD_REACTORS
330
352
102
}
330
1F
100
AcDbEntity
  8
1
  6
Continuous
 62
     7
100
AcDbLine
 10
-14.4902734624205
 20
13.86454086225378
 30
0.0
 11
-15.32369931125729
 21
14.34536346735202
 31
0.0
  0
LINE
  5
218
102
{ACAD_REACTORS
330
352
102
}
330
1F
100
AcDbEntity
  8
1
  6
Continuous
 62
     7
100
AcDbLine
 10
-15.32369931125729
 20
14.34536346735202
 30
0.0
 11
-15.32369931125729
 21
12.83333333333329
 31
0.0
  0
LINE
  5
219
102
{ACAD_REACTORS
330
352
102
}
330
1F
100
AcDbEntity
  8
1
  6
Continuous
 62
     7
100
AcDbLine
 10
-15.32369931125729
 20
12.83333333333329
 30
0.0
 11
-14.32369931125729
 21
12.83333333333329
 31
0.0
  0
LINE
  5
21A
102
{ACAD_REACTORS
330
352
102
}
330
1F
100
AcDbEntity
  8
1
  6
Continuous
 62
     7
100
AcDbLine
 10
-14.32369931125729
 20
12.16666666666659
 30
0.0
 11
-15.32369931125729
 21
12.16666666666659
 31
0.0
  0
LINE
  5
21B
102
{ACAD_REACTORS
330
352
102
}
330
1F
100
AcDbEntity
  8
1
  6
Continuous
 62
     7
100
AcDbLine
 10
-15.32369931125729
 20
12.16666666666659
 30
0.0
 11
-15.32369931125729
 21
10.65463653264803
 31
0.0
  0
LINE
  5
21C
102
{ACAD_REACTORS
330
352
102
}
330
1F
100
AcDbEntity
  8
1
  6
Continuous
 62
     7
100
AcDbLine
 10
-15.32369931125729
 20
10.65463653264803
 30
0.0
 11
-14.4902734624205
 21
11.1354591377462
 31
0.0
  0
LINE
  5
21D
102
{ACAD_REACTORS
330
352
102
}
330
1F
100
AcDbEntity
  8
1
  6
Continuous
 62
     7
100
AcDbLine
 10
-14.15712516009418
 20
10.55800208038031
 30
0.0
 11
-15.4904584934275
 21
9.7887713111497
 31
0.0
  0
LINE
  5
21E
330
1F
100
AcDbEntity
  8
1
  6
Continuous
 62
     7
100
AcDbLine
 10
-189.0
 20
25.00000000000003
 30
0.0
 11
-5.0
 21
25.00000000000003
 31
0.0
  0
LINE
  5
21F
330
1F
100
AcDbEntity
  8
1
  6
Continuous
 62
     7
100
AcDbLine
 10
-182.0
 20
20.00000000000003
 30
0.0
 11
-182.0
 21
40.00000000000003
 31
0.0
  0
LINE
  5
220
330
1F
100
AcDbEntity
  8
1
  6
Continuous
 62
     7
100
AcDbLine
 10
-163.9999999999999
 20
20.00000000000003
 30
0.0
 11
-163.9999999999999
 21
40.00000000000003
 31
0.0
  0
LINE
  5
221
330
1F
100
AcDbEntity
  8
1
  6
Continuous
 62
     7
100
AcDbLine
 10
-189.0
 20
30.00000000000003
 30
0.0
 11
-5.0
 21
30.00000000000003
 31
0.0
  0
LINE
  5
222
330
1F
100
AcDbEntity
  8
1
  6
Continuous
 62
     7
100
AcDbLine
 10
-189.0
 20
35.00000000000003
 30
0.0
 11
-5.0
 21
35.00000000000003
 31
0.0
  0
LINE
  5
223
330
1F
100
AcDbEntity
  8
1
  6
Continuous
 62
     7
100
AcDbLine
 10
-189.0
 20
40.00000000000003
 30
0.0
 11
-5.0
 21
40.00000000000003
 31
0.0
  0
LINE
  5
224
330
1F
100
AcDbEntity
  8
1
  6
Continuous
 62
     7
100
AcDbLine
 10
-189.0
 20
4.99999999999989
 30
0.0
 11
-5.0
 21
4.99999999999991
 31
0.0
  0
LINE
  5
225
330
1F
100
AcDbEntity
  8
1
  6
Continuous
 62
     7
100
AcDbLine
 10
-189.0
 20
20.0
 30
0.0
 11
-5.0
 21
20.00000000000003
 31
0.0
  0
LINE
  5
226
330
1F
100
AcDbEntity
  8
1
  6
Continuous
 62
     7
100
AcDbLine
 10
0.0
 20
297.0000000000001
 30
0.0
 11
-210.0000000000001
 21
297.0000000000001
 31
0.0
  0
LINE
  5
227
330
1F
100
AcDbEntity
  8
0
  6
Continuous
 62
     7
100
AcDbLine
 10
-143.837225790476
 20
254.7983888675651
 30
0.0
 11
-144.737225790476
 21
254.7983888675651
 31
0.0
  0
LINE
  5
228
330
1F
100
AcDbEntity
  8
0
  6
Continuous
 62
     7
100
AcDbLine
 10
-144.737225790476
 20
254.7983888675651
 30
0.0
 11
-144.737225790476
 21
253.7983888675651
 31
0.0
  0
LINE
  5
229
330
1F
100
AcDbEntity
  8
0
  6
Continuous
 62
     7
100
AcDbLine
 10
-144.737225790476
 20
253.7983888675651
 30
0.0
 11
-143.837225790476
 21
253.7983888675651
 31
0.0
  0
LINE
  5
22A
330
1F
100
AcDbEntity
  8
0
  6
Continuous
 62
     7
100
AcDbLine
 10
-144.737225790476
 20
252.1262630984122
 30
0.0
 11
-143.837225790476
 21
252.1262630984122
 31
0.0
  0
LINE
  5
22B
330
1F
100
AcDbEntity
  8
0
  6
Continuous
 62
     7
100
AcDbLine
 10
-143.837225790476
 20
253.1262630984122
 30
0.0
 11
-144.737225790476
 21
253.1262630984122
 31
0.0
  0
LINE
  5
22C
330
1F
100
AcDbEntity
  8
0
  6
Continuous
 62
     7
100
AcDbLine
 10
-143.837225790476
 20
234.7983888675651
 30
0.0
 11
-144.737225790476
 21
234.7983888675651
 31
0.0
  0
LINE
  5
22D
330
1F
100
AcDbEntity
  8
0
  6
Continuous
 62
     7
100
AcDbLine
 10
-144.737225790476
 20
234.7983888675651
 30
0.0
 11
-144.737225790476
 21
233.7983888675651
 31
0.0
  0
LINE
  5
22E
330
1F
100
AcDbEntity
  8
0
  6
Continuous
 62
     7
100
AcDbLine
 10
-144.737225790476
 20
233.7983888675651
 30
0.0
 11
-143.837225790476
 21
233.7983888675651
 31
0.0
  0
LINE
  5
22F
330
1F
100
AcDbEntity
  8
0
  6
Continuous
 62
     7
100
AcDbLine
 10
-143.837225790476
 20
233.1262630984121
 30
0.0
 11
-144.737225790476
 21
233.1262630984121
 31
0.0
  0
LINE
  5
230
330
1F
100
AcDbEntity
  8
0
  6
Continuous
 62
     7
100
AcDbLine
 10
-144.737225790476
 20
232.1262630984122
 30
0.0
 11
-143.837225790476
 21
232.1262630984122
 31
0.0
  0
LINE
  5
231
330
1F
100
AcDbEntity
  8
0
  6
Continuous
 62
     7
100
AcDbLine
 10
-144.737225790476
 20
233.1262630984121
 30
0.0
 11
-144.737225790476
 21
232.1262630984122
 31
0.0
  0
LINE
  5
232
330
1F
100
AcDbEntity
  8
0
  6
Continuous
 62
     7
100
AcDbLine
 10
-144.737225790476
 20
253.1262630984122
 30
0.0
 11
-144.737225790476
 21
252.1262630984122
 31
0.0
  0
LINE
  5
233
330
1F
100
AcDbEntity
  8
1
  6
Continuous
 62
     7
100
AcDbLine
 10
-131.6224848471913
 20
171.9164866094221
 30
0.0
 11
-129.1470087904761
 21
173.3446458729115
 31
0.0
  0
LINE
  5
234
330
1F
100
AcDbEntity
  8
1
  6
Continuous
 62
     7
100
AcDbLine
 10
-129.1470087904761
 20
173.3446458729115
 30
0.0
 11
-126.6715327337613
 21
171.9164866094221
 31
0.0
  0
LINE
  5
235
330
1F
100
AcDbEntity
  8
1
  6
Continuous
 62
     7
100
AcDbLine
 10
-126.6715327337613
 20
171.8315646042882
 30
0.0
 11
-129.1470087904761
 21
170.4034053407987
 31
0.0
  0
LINE
  5
236
330
1F
100
AcDbEntity
  8
1
  6
Continuous
 62
     7
100
AcDbLine
 10
-129.1470087904761
 20
170.4034053407987
 30
0.0
 11
-131.6224848471913
 21
171.8315646042882
 31
0.0
  0
LINE
  5
237
330
1F
100
AcDbEntity
  8
1
  6
Continuous
 62
     7
100
AcDbLine
 10
-128.3602240493317
 20
171.8685267893546
 30
0.0
 11
-127.8726255533336
 21
171.8685267893546
 31
0.0
  0
LINE
  5
238
330
1F
100
AcDbEntity
  8
1
  6
Continuous
 62
     7
100
AcDbLine
 10
-128.3602240493317
 20
172.5851254425332
 30
0.0
 11
-128.3602240493317
 21
171.162925771177
 31
0.0
  0
LINE
  5
239
330
1F
100
AcDbEntity
  8
1
  6
Continuous
 62
     7
100
AcDbLine
 10
-128.3602240493317
 20
172.5851254425332
 30
0.0
 11
-127.8855905724971
 21
172.3112984366672
 31
0.0
  0
LINE
  5
23A
330
1F
100
AcDbEntity
  8
1
  6
Continuous
 62
     7
100
AcDbLine
 10
-128.3602240493317
 20
171.162925771177
 30
0.0
 11
-127.8855905724971
 21
171.436752777043
 31
0.0
  0
LINE
  5
23B
330
1F
100
AcDbEntity
  8
1
  6
Continuous
 62
     7
100
AcDbLine
 10
-129.9337935316206
 20
171.162925771177
 30
0.0
 11
-129.1601281364126
 21
170.7165803508647
 31
0.0
  0
LINE
  5
23C
330
1F
100
AcDbEntity
  8
1
  6
Continuous
 62
     7
100
AcDbLine
 10
-130.3184438495139
 20
171.3848394161151
 30
0.0
 11
-130.3184438495139
 21
172.3700030455203
 31
0.0
  0
LINE
  5
23D
330
1F
100
AcDbEntity
  8
1
  6
Continuous
 62
     7
100
AcDbLine
 10
-129.9337935316206
 20
172.5919166904587
 30
0.0
 11
-129.9337935316206
 21
171.162925771177
 31
0.0
  0
LINE
  5
23E
330
1F
100
AcDbEntity
  8
1
  6
Continuous
 62
     7
100
AcDbLine
 10
-129.5291613790322
 20
171.4082006093735
 30
0.0
 11
-129.5291613790322
 21
172.7320160086185
 31
0.0
  0
LINE
  5
23F
330
1F
100
AcDbEntity
  8
1
  6
Continuous
 62
     7
100
AcDbLine
 10
-128.7498698258987
 20
170.9381301308499
 30
0.0
 11
-128.7498698258987
 21
172.7579731733094
 31
0.0
  0
LINE
  5
240
330
1F
100
AcDbEntity
  8
1
  6
Continuous
 62
     7
100
AcDbLine
 10
-129.5291613790322
 20
172.7320160086185
 30
0.0
 11
-129.1470087904761
 21
172.0701083089959
 31
0.0
  0
LINE
  5
241
330
1F
100
AcDbEntity
  8
1
  6
Continuous
 62
     7
100
AcDbLine
 10
-129.1470087904761
 20
172.0701083089959
 30
0.0
 11
-128.7498698258987
 21
172.7579731733094
 31
0.0
  0
LINE
  5
242
330
1F
100
AcDbEntity
  8
0
  6
Continuous
 62
     7
100
AcDbLine
 10
-143.8567917904763
 20
86.98853513028928
 30
0.0
 11
-143.8567917904763
 21
86.31640936113618
 31
0.0
  0
LINE
  5
243
330
1F
100
AcDbEntity
  8
0
  6
Continuous
 62
     7
100
AcDbLine
 10
-143.8567917904763
 20
106.9885351302894
 30
0.0
 11
-143.8567917904763
 21
106.3164093611364
 31
0.0
  0
LINE
  5
244
330
1F
100
AcDbEntity
  8
0
  6
Continuous
 62
     7
100
AcDbLine
 10
-114.4567917904762
 20
88.65247224571257
 30
0.0
 11
-115.4567917904763
 21
88.65247224571269
 31
0.0
  0
LINE
  5
245
330
1F
100
AcDbEntity
  8
0
  6
Continuous
 62
     7
100
AcDbLine
 10
-115.4567917904763
 20
104.6524722457127
 30
0.0
 11
-114.4567917904763
 21
104.6524722457126
 31
0.0
  0
LINE
  5
246
330
1F
100
AcDbEntity
  8
0
  6
Continuous
 62
     7
100
AcDbLine
 10
-113.5567917904763
 20
170.5073320447402
 30
0.0
 11
-114.4567917904763
 21
170.5073320447405
 31
0.0
  0
LINE
  5
247
330
1F
100
AcDbEntity
  8
0
  6
Continuous
 62
     7
100
AcDbLine
 10
-113.5567917904763
 20
170.5073320447402
 30
0.0
 11
-113.5567917904763
 21
180.5073320447403
 31
0.0
  0
LINE
  5
248
330
1F
100
AcDbEntity
  8
0
  6
Continuous
 62
     7
100
AcDbLine
 10
-114.4567917904764
 20
86.31640936113601
 30
0.0
 11
-113.5567917904764
 21
86.31640936113601
 31
0.0
  0
LINE
  5
249
330
1F
100
AcDbEntity
  8
0
  6
Continuous
 62
     7
100
AcDbLine
 10
-113.5567917904764
 20
85.31640936113612
 30
0.0
 11
-114.4567917904764
 21
85.31640936113621
 31
0.0
  0
LINE
  5
24A
330
1F
100
AcDbEntity
  8
0
  6
Continuous
 62
     7
100
AcDbLine
 10
-113.5567917904764
 20
107.9885351302892
 30
0.0
 11
-113.5567917904764
 21
106.9885351302892
 31
0.0
  0
LINE
  5
24B
330
1F
100
AcDbEntity
  8
0
  6
Continuous
 62
     7
100
AcDbLine
 10
-114.4567917904764
 20
107.9885351302892
 30
0.0
 11
-113.5567917904764
 21
107.9885351302892
 31
0.0
  0
LINE
  5
24C
330
1F
100
AcDbEntity
  8
0
  6
Continuous
 62
     7
100
AcDbLine
 10
-113.5567917904764
 20
106.9885351302892
 30
0.0
 11
-114.4567917904764
 21
106.9885351302892
 31
0.0
  0
LINE
  5
24D
330
1F
100
AcDbEntity
  8
0
  6
Continuous
 62
     7
100
AcDbLine
 10
-113.5567917904764
 20
87.98853513028922
 30
0.0
 11
-113.5567917904764
 21
86.98853513028902
 31
0.0
  0
LINE
  5
24E
330
1F
100
AcDbEntity
  8
0
  6
Continuous
 62
     7
100
AcDbLine
 10
-114.4567917904764
 20
106.3164093611361
 30
0.0
 11
-113.5567917904764
 21
106.3164093611361
 31
0.0
  0
LINE
  5
24F
330
1F
100
AcDbEntity
  8
0
  6
Continuous
 62
     7
100
AcDbLine
 10
-113.5567917904764
 20
105.3164093611361
 30
0.0
 11
-114.4567917904764
 21
105.3164093611361
 31
0.0
  0
LINE
  5
250
330
1F
100
AcDbEntity
  8
0
  6
Continuous
 62
     7
100
AcDbLine
 10
-113.5567917904764
 20
86.98853513028902
 30
0.0
 11
-114.4567917904764
 21
86.98853513028902
 31
0.0
  0
LINE
  5
251
330
1F
100
AcDbEntity
  8
0
  6
Continuous
 62
     7
100
AcDbLine
 10
-114.4567917904764
 20
87.98853513028922
 30
0.0
 11
-113.5567917904764
 21
87.98853513028922
 31
0.0
  0
LINE
  5
252
330
1F
100
AcDbEntity
  8
0
  6
Continuous
 62
     7
100
AcDbLine
 10
-113.5567917904764
 20
106.3164093611361
 30
0.0
 11
-113.5567917904764
 21
105.3164093611361
 31
0.0
  0
LINE
  5
253
330
1F
100
AcDbEntity
  8
0
  6
Continuous
 62
     7
100
AcDbLine
 10
-113.5567917904764
 20
86.31640936113601
 30
0.0
 11
-113.5567917904764
 21
85.31640936113612
 31
0.0
  0
LINE
  5
254
330
1F
100
AcDbEntity
  8
0
  6
Continuous
 62
     7
100
AcDbLine
 10
-143.8567917904764
 20
105.1024722457128
 30
0.0
 11
-142.8567917904763
 21
105.1024722457127
 31
0.0
  0
LINE
  5
255
330
1F
100
AcDbEntity
  8
0
  6
Continuous
 62
     7
100
AcDbLine
 10
-122.5470087904762
 20
81.35247224571259
 30
0.0
 11
-121.7970087904762
 21
79.9524722457127
 31
0.0
  0
LINE
  5
256
330
1F
100
AcDbEntity
  8
0
  6
Continuous
 62
     7
100
AcDbLine
 10
-121.7970087904762
 20
79.9524722457127
 30
0.0
 11
-121.0470087904765
 21
81.35247224571268
 31
0.0
  0
LINE
  5
257
330
1F
100
AcDbEntity
  8
0
  6
Continuous
 62
     7
100
AcDbLine
 10
-121.0470087904765
 20
81.35247224571268
 30
0.0
 11
-122.5470087904762
 21
81.35247224571259
 31
0.0
  0
LINE
  5
258
330
1F
100
AcDbEntity
  8
0
  6
Continuous
 62
     7
100
AcDbLine
 10
-142.8567917904763
 20
108.2024722457127
 30
0.0
 11
-143.8567917904763
 21
108.2024722457127
 31
0.0
  0
LINE
  5
259
330
1F
100
AcDbEntity
  8
0
  6
Continuous
 62
     7
100
AcDbLine
 10
-143.8567917904764
 20
85.10247224571282
 30
0.0
 11
-142.8567917904763
 21
85.1024722457127
 31
0.0
  0
LINE
  5
25A
330
1F
100
AcDbEntity
  8
0
  6
Continuous
 62
     7
100
AcDbLine
 10
-142.8567917904763
 20
88.20247224571273
 30
0.0
 11
-143.8567917904763
 21
88.20247224571273
 31
0.0
  0
LINE
  5
25B
330
1F
100
AcDbEntity
  8
0
  6
Continuous
 62
     7
100
AcDbLine
 10
-114.4567917904764
 20
106.3164093611361
 30
0.0
 11
-114.4567917904764
 21
106.9885351302892
 31
0.0
  0
LINE
  5
25C
330
1F
100
AcDbEntity
  8
0
  6
Continuous
 62
     7
100
AcDbLine
 10
-114.4567917904764
 20
86.31640936113601
 30
0.0
 11
-114.4567917904764
 21
86.98853513028902
 31
0.0
  0
LINE
  5
25D
330
1F
100
AcDbEntity
  8
0
  6
Continuous
 62
     7
100
AcDbLine
 10
-135.7470087904769
 20
81.35247224571268
 30
0.0
 11
-137.2470087904763
 21
81.35247224571259
 31
0.0
  0
LINE
  5
25E
330
1F
100
AcDbEntity
  8
0
  6
Continuous
 62
     7
100
AcDbLine
 10
-136.4970087904763
 20
79.9524722457127
 30
0.0
 11
-135.7470087904769
 21
81.35247224571268
 31
0.0
  0
LINE
  5
25F
330
1F
100
AcDbEntity
  8
0
  6
Continuous
 62
     7
100
AcDbLine
 10
-137.2470087904763
 20
81.35247224571259
 30
0.0
 11
-136.4970087904763
 21
79.9524722457127
 31
0.0
  0
LINE
  5
260
330
1F
100
AcDbEntity
  8
0
  6
Continuous
 62
     7
100
AcDbLine
 10
-114.4567917904763
 20
180.5073320447403
 30
0.0
 11
-113.5567917904763
 21
180.5073320447403
 31
0.0
  0
ARC
  5
261
330
1F
100
AcDbEntity
  8
0
  6
Continuous
 62
     7
100
AcDbCircle
 10
-139.737225790476
 20
233.8123259829881
 30
0.0
 40
3.350000000000085
100
AcDbArc
 50
155.5673023205463
 51
204.4326976794555
  0
ARC
  5
262
330
1F
100
AcDbEntity
  8
0
  6
Continuous
 62
     7
100
AcDbCircle
 10
-139.737225790476
 20
240.7123259829881
 30
0.0
 40
3.350000000000097
100
AcDbArc
 50
155.5673023205458
 51
204.4326976794538
  0
ARC
  5
263
330
1F
100
AcDbEntity
  8
0
  6
Continuous
 62
     7
100
AcDbCircle
 10
-139.737225790476
 20
246.2123259829881
 30
0.0
 40
3.350000000000097
100
AcDbArc
 50
155.5673023205458
 51
204.4326976794538
  0
ARC
  5
264
330
1F
100
AcDbEntity
  8
0
  6
Continuous
 62
     7
100
AcDbCircle
 10
-139.737225790476
 20
253.112325982988
 30
0.0
 40
3.35000000000012
100
AcDbArc
 50
155.5673023205449
 51
204.4326976794542
  0
ARC
  5
265
330
1F
100
AcDbEntity
  8
0
  6
Continuous
 62
     7
100
AcDbCircle
 10
-120.4022039564843
 20
261.837325982988
 30
0.0
 40
4.849999999999831
100
AcDbArc
 50
244.571924239256
 51
270.0
  0
ARC
  5
266
330
1F
100
AcDbEntity
  8
0
  6
Continuous
 62
     7
100
AcDbCircle
 10
-127.2722476244677
 20
225.0873259829881
 30
0.0
 40
4.849999999999882
100
AcDbArc
 50
64.5719242392563
 51
90.0
  0
ARC
  5
267
330
1F
100
AcDbEntity
  8
0
  6
Continuous
 62
     7
100
AcDbCircle
 10
-120.4022039564843
 20
225.0873259829881
 30
0.0
 40
4.850000000000023
100
AcDbArc
 50
90.0
 51
115.4280757607458
  0
ARC
  5
268
330
1F
100
AcDbEntity
  8
0
  6
Continuous
 62
     7
100
AcDbCircle
 10
-131.0022039564843
 20
225.0873259829881
 30
0.0
 40
4.850000000000023
100
AcDbArc
 50
90.0
 51
115.4280757607449
  0
ARC
  5
269
330
1F
100
AcDbEntity
  8
0
  6
Continuous
 62
     7
100
AcDbCircle
 10
-137.8722476244678
 20
225.0873259829881
 30
0.0
 40
4.849999999999968
100
AcDbArc
 50
64.57192423925417
 51
90.0
  0
ARC
  5
26A
330
1F
100
AcDbEntity
  8
0
  6
Continuous
 62
     7
100
AcDbCircle
 10
-123.837225790476
 20
232.3123259829881
 30
0.0
 40
3.150000000000118
100
AcDbArc
 50
244.5719242392558
 51
295.4280757607409
  0
ARC
  5
26B
330
1F
100
AcDbEntity
  8
0
  6
Continuous
 62
     7
100
AcDbCircle
 10
-134.437225790476
 20
232.3123259829881
 30
0.0
 40
3.150000000000082
100
AcDbArc
 50
244.5719242392572
 51
295.4280757607423
  0
ARC
  5
26C
330
1F
100
AcDbEntity
  8
0
  6
Continuous
 62
     7
100
AcDbCircle
 10
-137.8722476244678
 20
261.837325982988
 30
0.0
 40
4.849999999999966
100
AcDbArc
 50
270.0
 51
295.4280757607461
  0
ARC
  5
26D
330
1F
100
AcDbEntity
  8
0
  6
Continuous
 62
     7
100
AcDbCircle
 10
-131.0022039564843
 20
261.837325982988
 30
0.0
 40
4.849999999999831
100
AcDbArc
 50
244.571924239256
 51
270.0
  0
ARC
  5
26E
330
1F
100
AcDbEntity
  8
0
  6
Continuous
 62
     7
100
AcDbCircle
 10
-123.837225790476
 20
254.612325982988
 30
0.0
 40
3.150000000000118
100
AcDbArc
 50
64.57192423925585
 51
115.4280757607425
  0
ARC
  5
26F
330
1F
100
AcDbEntity
  8
0
  6
Continuous
 62
     7
100
AcDbCircle
 10
-118.5372257904761
 20
233.8123259829881
 30
0.0
 40
3.350000000000132
100
AcDbArc
 50
335.5673023205445
 51
24.43269767945374
  0
ARC
  5
270
330
1F
100
AcDbEntity
  8
0
  6
Continuous
 62
     7
100
AcDbCircle
 10
-118.5372257904761
 20
240.7123259829881
 30
0.0
 40
3.350000000000085
100
AcDbArc
 50
335.5673023205463
 51
24.43269767945064
  0
ARC
  5
271
330
1F
100
AcDbEntity
  8
0
  6
Continuous
 62
     7
100
AcDbCircle
 10
-134.437225790476
 20
254.612325982988
 30
0.0
 40
3.150000000000118
100
AcDbArc
 50
64.57192423925585
 51
115.4280757607428
  0
ARC
  5
272
330
1F
100
AcDbEntity
  8
0
  6
Continuous
 62
     7
100
AcDbCircle
 10
-127.2722476244677
 20
261.837325982988
 30
0.0
 40
4.849999999999966
100
AcDbArc
 50
270.0
 51
295.4280757607451
  0
ARC
  5
273
330
1F
100
AcDbEntity
  8
0
  6
Continuous
 62
     7
100
AcDbCircle
 10
-118.5372257904761
 20
253.112325982988
 30
0.0
 40
3.350000000000097
100
AcDbArc
 50
335.5673023205458
 51
24.43269767945506
  0
ARC
  5
274
330
1F
100
AcDbEntity
  8
0
  6
Continuous
 62
     7
100
AcDbCircle
 10
-118.5372257904761
 20
246.2123259829881
 30
0.0
 40
3.350000000000085
100
AcDbArc
 50
335.5673023205463
 51
24.43269767945064
  0
ARC
  5
275
330
1F
100
AcDbEntity
  8
0
  6
Continuous
 62
     7
100
AcDbCircle
 10
-134.4567917904763
 20
100.9024722457127
 30
0.0
 40
2.850000000000113
100
AcDbArc
 50
226.8264488927404
 51
313.1735511072567
  0
ARC
  5
276
330
1F
100
AcDbEntity
  8
0
  6
Continuous
 62
     7
100
AcDbCircle
 10
-134.4567917904763
 20
92.40247224571269
 30
0.0
 40
2.849999999999967
100
AcDbArc
 50
46.82644889274312
 51
133.1735511072581
  0
ARC
  5
277
330
1F
100
AcDbEntity
  8
0
  6
Continuous
 62
     7
100
AcDbCircle
 10
-129.1567917904764
 20
98.80247224571272
 30
0.0
 40
1.899999999999948
100
AcDbArc
 50
24.90106237036429
 51
155.0989376296355
  0
ARC
  5
278
330
1F
100
AcDbEntity
  8
0
  6
Continuous
 62
     7
100
AcDbCircle
 10
-139.7567917904764
 20
98.80247224571272
 30
0.0
 40
1.899999999999961
100
AcDbArc
 50
24.90106237036411
 51
155.0989376296359
  0
ARC
  5
279
330
1F
100
AcDbEntity
  8
0
  6
Continuous
 62
     7
100
AcDbCircle
 10
-123.8567917904765
 20
101.5024722457129
 30
0.0
 40
1.900000000000025
100
AcDbArc
 50
204.9010623703765
 51
335.0989376296263
  0
ARC
  5
27A
330
1F
100
AcDbEntity
  8
0
  6
Continuous
 62
     7
100
AcDbCircle
 10
-118.5567917904765
 20
98.80247224571272
 30
0.0
 40
1.900000000000038
100
AcDbArc
 50
24.90106237036303
 51
155.0989376296344
  0
ARC
  5
27B
330
1F
100
AcDbEntity
  8
0
  6
Continuous
 62
     7
100
AcDbCircle
 10
-123.8567917904764
 20
92.40247224571269
 30
0.0
 40
2.850000000000025
100
AcDbArc
 50
46.82644889274187
 51
133.1735511072598
  0
ARC
  5
27C
330
1F
100
AcDbEntity
  8
0
  6
Continuous
 62
     7
100
AcDbCircle
 10
-139.7567917904764
 20
99.40247224571269
 30
0.0
 40
2.499999999999936
100
AcDbArc
 50
141.2605754021426
 51
38.73942459785737
  0
ARC
  5
27D
330
1F
100
AcDbEntity
  8
0
  6
Continuous
 62
     7
100
AcDbCircle
 10
-139.7567917904764
 20
106.3024722457128
 30
0.0
 40
2.499999999999918
100
AcDbArc
 50
141.2605754021432
 51
38.73942459785685
  0
ARC
  5
27E
330
1F
100
AcDbEntity
  8
0
  6
Continuous
 62
     7
100
AcDbCircle
 10
-139.7567917904764
 20
106.3024722457128
 30
0.0
 40
2.84999999999975
100
AcDbArc
 50
46.82644889273902
 51
133.173551107261
  0
ARC
  5
27F
330
1F
100
AcDbEntity
  8
0
  6
Continuous
 62
     7
100
AcDbCircle
 10
-118.5567917904765
 20
106.3024722457128
 30
0.0
 40
2.849999999999886
100
AcDbArc
 50
46.8264488927361
 51
133.173551107261
  0
ARC
  5
280
330
1F
100
AcDbEntity
  8
0
  6
Continuous
 62
     7
100
AcDbCircle
 10
-123.8567917904764
 20
107.8024722457128
 30
0.0
 40
2.850000000000113
100
AcDbArc
 50
226.8264488927404
 51
313.173551107258
  0
ARC
  5
281
330
1F
100
AcDbEntity
  8
0
  6
Continuous
 62
     7
100
AcDbCircle
 10
-134.4567917904763
 20
107.8024722457128
 30
0.0
 40
2.850000000000113
100
AcDbArc
 50
226.8264488927404
 51
313.1735511072567
  0
ARC
  5
282
330
1F
100
AcDbEntity
  8
0
  6
Continuous
 62
     7
100
AcDbCircle
 10
-129.1567917904764
 20
105.7024722457128
 30
0.0
 40
1.899999999999906
100
AcDbArc
 50
24.90106237036157
 51
155.0989376296382
  0
ARC
  5
283
330
1F
100
AcDbEntity
  8
0
  6
Continuous
 62
     7
100
AcDbCircle
 10
-139.7567917904764
 20
105.7024722457128
 30
0.0
 40
1.899999999999919
100
AcDbArc
 50
24.90106237036139
 51
155.0989376296386
  0
ARC
  5
284
330
1F
100
AcDbEntity
  8
0
  6
Continuous
 62
     7
100
AcDbCircle
 10
-123.8567917904765
 20
108.4024722457127
 30
0.0
 40
1.899999999999942
100
AcDbArc
 50
204.901062370371
 51
335.0989376296317
  0
ARC
  5
285
330
1F
100
AcDbEntity
  8
0
  6
Continuous
 62
     7
100
AcDbCircle
 10
-134.4567917904764
 20
108.4024722457127
 30
0.0
 40
1.900000000000045
100
AcDbArc
 50
204.9010623703695
 51
335.0989376296315
  0
ARC
  5
286
330
1F
100
AcDbEntity
  8
0
  6
Continuous
 62
     7
100
AcDbCircle
 10
-118.5567917904765
 20
105.7024722457128
 30
0.0
 40
1.899999999999996
100
AcDbArc
 50
24.9010623703603
 51
155.0989376296456
  0
ARC
  5
287
330
1F
100
AcDbEntity
  8
0
  6
Continuous
 62
     7
100
AcDbCircle
 10
-123.8567917904764
 20
107.8024722457128
 30
0.0
 40
2.50000000000018
100
AcDbArc
 50
321.2605754021388
 51
218.7394245978596
  0
ARC
  5
288
330
1F
100
AcDbEntity
  8
0
  6
Continuous
 62
     7
100
AcDbCircle
 10
-134.4567917904763
 20
107.8024722457128
 30
0.0
 40
2.500000000000114
100
AcDbArc
 50
321.2605754021375
 51
218.7394245978596
  0
ARC
  5
289
330
1F
100
AcDbEntity
  8
0
  6
Continuous
 62
     7
100
AcDbCircle
 10
-118.5567917904765
 20
106.3024722457128
 30
0.0
 40
2.499999999999918
100
AcDbArc
 50
141.2605754021432
 51
38.739424597854
  0
ARC
  5
28A
330
1F
100
AcDbEntity
  8
0
  6
Continuous
 62
     7
100
AcDbCircle
 10
-134.4567917904763
 20
107.8024722457128
 30
0.0
 40
2.999999999999643
100
AcDbArc
 50
66.44353569089945
 51
113.556464309104
  0
ARC
  5
28B
330
1F
100
AcDbEntity
  8
0
  6
Continuous
 62
     7
100
AcDbCircle
 10
-134.4567917904763
 20
100.9024722457127
 30
0.0
 40
2.499999999999936
100
AcDbArc
 50
321.2605754021426
 51
218.7394245978545
  0
ARC
  5
28C
330
1F
100
AcDbEntity
  8
0
  6
Continuous
 62
     7
100
AcDbCircle
 10
-134.4567917904764
 20
101.5024722457129
 30
0.0
 40
1.900000000000128
100
AcDbArc
 50
204.901062370375
 51
335.0989376296261
  0
ARC
  5
28D
330
1F
100
AcDbEntity
  8
0
  6
Continuous
 62
     7
100
AcDbCircle
 10
-118.5567917904765
 20
99.40247224571269
 30
0.0
 40
2.850000000000113
100
AcDbArc
 50
46.8264488927404
 51
133.1735511072567
  0
ARC
  5
28E
330
1F
100
AcDbEntity
  8
0
  6
Continuous
 62
     7
100
AcDbCircle
 10
-139.7567917904764
 20
99.40247224571269
 30
0.0
 40
2.849999999999977
100
AcDbArc
 50
46.82644889274332
 51
133.1735511072567
  0
ARC
  5
28F
330
1F
100
AcDbEntity
  8
0
  6
Continuous
 62
     7
100
AcDbCircle
 10
-123.8567917904764
 20
100.9024722457127
 30
0.0
 40
2.500000000000003
100
AcDbArc
 50
321.2605754021438
 51
218.7394245978545
  0
ARC
  5
290
330
1F
100
AcDbEntity
  8
0
  6
Continuous
 62
     7
100
AcDbCircle
 10
-123.8567917904764
 20
107.8024722457128
 30
0.0
 40
2.999999999999757
100
AcDbArc
 50
66.44353569089448
 51
113.556464309104
  0
ARC
  5
291
330
1F
100
AcDbEntity
  8
0
  6
Continuous
 62
     7
100
AcDbCircle
 10
-118.5567917904765
 20
87.0024722457126
 30
0.0
 40
2.500000000000082
100
AcDbArc
 50
321.2605754021457
 51
218.7394245978571
  0
ARC
  5
292
330
1F
100
AcDbEntity
  8
0
  6
Continuous
 62
     7
100
AcDbCircle
 10
-129.1567917904764
 20
87.60247224571262
 30
0.0
 40
1.900000000000031
100
AcDbArc
 50
204.9010623703707
 51
335.0989376296295
  0
ARC
  5
293
330
1F
100
AcDbEntity
  8
0
  6
Continuous
 62
     7
100
AcDbCircle
 10
-118.5567917904765
 20
87.60247224571262
 30
0.0
 40
1.899999999999953
100
AcDbArc
 50
204.9010623703718
 51
335.0989376296308
  0
ARC
  5
294
330
1F
100
AcDbEntity
  8
0
  6
Continuous
 62
     7
100
AcDbCircle
 10
-123.8567917904764
 20
84.90247224571269
 30
0.0
 40
1.899999999999948
100
AcDbArc
 50
24.90106237036429
 51
155.0989376296359
  0
ARC
  5
295
330
1F
100
AcDbEntity
  8
0
  6
Continuous
 62
     7
100
AcDbCircle
 10
-123.8567917904764
 20
85.5024722457126
 30
0.0
 40
3.000000000000114
100
AcDbArc
 50
246.4435356908992
 51
293.556464309097
  0
ARC
  5
296
330
1F
100
AcDbEntity
  8
0
  6
Continuous
 62
     7
100
AcDbCircle
 10
-129.1567917904764
 20
87.0024722457126
 30
0.0
 40
2.85000000000005
100
AcDbArc
 50
226.8264488927447
 51
313.1735511072553
  0
ARC
  5
297
330
1F
100
AcDbEntity
  8
0
  6
Continuous
 62
     7
100
AcDbCircle
 10
-118.5567917904765
 20
87.0024722457126
 30
0.0
 40
2.849999999999982
100
AcDbArc
 50
226.8264488927462
 51
313.1735511072582
  0
ARC
  5
298
330
1F
100
AcDbEntity
  8
0
  6
Continuous
 62
     7
100
AcDbCircle
 10
-123.8567917904764
 20
85.5024722457126
 30
0.0
 40
2.850000000000025
100
AcDbArc
 50
46.82644889274187
 51
133.1735511072598
  0
ARC
  5
299
330
1F
100
AcDbEntity
  8
0
  6
Continuous
 62
     7
100
AcDbCircle
 10
-123.8567917904764
 20
85.5024722457126
 30
0.0
 40
2.500000000000011
100
AcDbArc
 50
141.2605754021478
 51
38.73942459785385
  0
ARC
  5
29A
330
1F
100
AcDbEntity
  8
0
  6
Continuous
 62
     7
100
AcDbCircle
 10
-134.4567917904763
 20
85.5024722457126
 30
0.0
 40
2.500000000000011
100
AcDbArc
 50
141.2605754021478
 51
38.73942459785508
  0
ARC
  5
29B
330
1F
100
AcDbEntity
  8
0
  6
Continuous
 62
     7
100
AcDbCircle
 10
-134.4567917904763
 20
85.5024722457126
 30
0.0
 40
2.849999999999967
100
AcDbArc
 50
46.82644889274312
 51
133.1735511072598
  0
ARC
  5
29C
330
1F
100
AcDbEntity
  8
0
  6
Continuous
 62
     7
100
AcDbCircle
 10
-134.4567917904763
 20
85.5024722457126
 30
0.0
 40
3.000000000000114
100
AcDbArc
 50
246.4435356908992
 51
293.5564643090972
  0
ARC
  5
29D
330
1F
100
AcDbEntity
  8
0
  6
Continuous
 62
     7
100
AcDbCircle
 10
-139.7567917904764
 20
94.5024722457126
 30
0.0
 40
1.900000000000009
100
AcDbArc
 50
204.9010623703672
 51
335.0989376296328
  0
ARC
  5
29E
330
1F
100
AcDbEntity
  8
0
  6
Continuous
 62
     7
100
AcDbCircle
 10
-134.4567917904763
 20
84.90247224571269
 30
0.0
 40
1.899999999999961
100
AcDbArc
 50
24.90106237036411
 51
155.098937629637
  0
ARC
  5
29F
330
1F
100
AcDbEntity
  8
0
  6
Continuous
 62
     7
100
AcDbCircle
 10
-139.7567917904764
 20
87.60247224571262
 30
0.0
 40
1.900000000000057
100
AcDbArc
 50
204.9010623703703
 51
335.0989376296359
  0
ARC
  5
2A0
330
1F
100
AcDbEntity
  8
0
  6
Continuous
 62
     7
100
AcDbCircle
 10
-139.7567917904764
 20
87.0024722457126
 30
0.0
 40
2.849999999999884
100
AcDbArc
 50
226.8264488927416
 51
313.1735511072584
  0
ARC
  5
2A1
330
1F
100
AcDbEntity
  8
0
  6
Continuous
 62
     7
100
AcDbCircle
 10
-139.7567917904764
 20
93.90247224571269
 30
0.0
 40
2.849999999999967
100
AcDbArc
 50
226.8264488927431
 51
313.1735511072569
  0
ARC
  5
2A2
330
1F
100
AcDbEntity
  8
0
  6
Continuous
 62
     7
100
AcDbCircle
 10
-139.7567917904764
 20
87.0024722457126
 30
0.0
 40
2.499999999999927
100
AcDbArc
 50
321.2605754021429
 51
218.7394245978571
  0
ARC
  5
2A3
330
1F
100
AcDbEntity
  8
0
  6
Continuous
 62
     7
100
AcDbCircle
 10
-134.4567917904763
 20
92.40247224571269
 30
0.0
 40
2.500000000000082
100
AcDbArc
 50
141.2605754021457
 51
38.73942459785711
  0
ARC
  5
2A4
330
1F
100
AcDbEntity
  8
0
  6
Continuous
 62
     7
100
AcDbCircle
 10
-139.7567917904764
 20
93.90247224571269
 30
0.0
 40
2.499999999999927
100
AcDbArc
 50
321.2605754021429
 51
218.7394245978571
  0
ARC
  5
2A5
330
1F
100
AcDbEntity
  8
0
  6
Continuous
 62
     7
100
AcDbCircle
 10
-123.8567917904764
 20
91.8024722457125
 30
0.0
 40
1.900000000000044
100
AcDbArc
 50
24.90106237037051
 51
155.0989376296297
  0
ARC
  5
2A6
330
1F
100
AcDbEntity
  8
0
  6
Continuous
 62
     7
100
AcDbCircle
 10
-129.1567917904764
 20
94.5024722457126
 30
0.0
 40
1.899999999999983
100
AcDbArc
 50
204.9010623703676
 51
335.0989376296326
  0
ARC
  5
2A7
330
1F
100
AcDbEntity
  8
0
  6
Continuous
 62
     7
100
AcDbCircle
 10
-123.8567917904764
 20
100.9024722457127
 30
0.0
 40
2.850000000000113
100
AcDbArc
 50
226.8264488927404
 51
313.173551107258
  0
ARC
  5
2A8
330
1F
100
AcDbEntity
  8
0
  6
Continuous
 62
     7
100
AcDbCircle
 10
-118.5567917904765
 20
93.90247224571269
 30
0.0
 40
2.500000000000082
100
AcDbArc
 50
321.2605754021457
 51
218.7394245978571
  0
ARC
  5
2A9
330
1F
100
AcDbEntity
  8
0
  6
Continuous
 62
     7
100
AcDbCircle
 10
-129.1567917904764
 20
93.90247224571269
 30
0.0
 40
2.500000000000082
100
AcDbArc
 50
321.2605754021457
 51
218.7394245978559
  0
ARC
  5
2AA
330
1F
100
AcDbEntity
  8
0
  6
Continuous
 62
     7
100
AcDbCircle
 10
-129.1567917904764
 20
99.40247224571269
 30
0.0
 40
2.500000000000003
100
AcDbArc
 50
141.2605754021438
 51
38.73942459785451
  0
ARC
  5
2AB
330
1F
100
AcDbEntity
  8
0
  6
Continuous
 62
     7
100
AcDbCircle
 10
-129.1567917904764
 20
99.40247224571269
 30
0.0
 40
2.850000000000113
100
AcDbArc
 50
46.8264488927404
 51
133.1735511072579
  0
ARC
  5
2AC
330
1F
100
AcDbEntity
  8
0
  6
Continuous
 62
     7
100
AcDbCircle
 10
-129.1567917904764
 20
106.3024722457128
 30
0.0
 40
2.499999999999985
100
AcDbArc
 50
141.2605754021444
 51
38.739424597854
  0
ARC
  5
2AD
330
1F
100
AcDbEntity
  8
0
  6
Continuous
 62
     7
100
AcDbCircle
 10
-129.1567917904764
 20
106.3024722457128
 30
0.0
 40
2.849999999999967
100
AcDbArc
 50
46.82644889274312
 51
133.1735511072569
  0
ARC
  5
2AE
330
1F
100
AcDbEntity
  8
0
  6
Continuous
 62
     7
100
AcDbCircle
 10
-129.1567917904764
 20
87.0024722457126
 30
0.0
 40
2.500000000000082
100
AcDbArc
 50
321.2605754021457
 51
218.7394245978559
  0
ARC
  5
2AF
330
1F
100
AcDbEntity
  8
0
  6
Continuous
 62
     7
100
AcDbCircle
 10
-118.5567917904765
 20
93.90247224571269
 30
0.0
 40
2.849999999999967
100
AcDbArc
 50
226.8264488927431
 51
313.1735511072598
  0
ARC
  5
2B0
330
1F
100
AcDbEntity
  8
0
  6
Continuous
 62
     7
100
AcDbCircle
 10
-134.4567917904763
 20
91.8024722457125
 30
0.0
 40
1.900000000000057
100
AcDbArc
 50
24.90106237037033
 51
155.0989376296308
  0
ARC
  5
2B1
330
1F
100
AcDbEntity
  8
0
  6
Continuous
 62
     7
100
AcDbCircle
 10
-118.5567917904765
 20
94.5024722457126
 30
0.0
 40
1.899999999999906
100
AcDbArc
 50
204.9010623703687
 51
335.0989376296338
  0
ARC
  5
2B2
330
1F
100
AcDbEntity
  8
0
  6
Continuous
 62
     7
100
AcDbCircle
 10
-129.1567917904764
 20
93.90247224571269
 30
0.0
 40
2.850000000000025
100
AcDbArc
 50
226.8264488927419
 51
313.1735511072598
  0
ARC
  5
2B3
330
1F
100
AcDbEntity
  8
0
  6
Continuous
 62
     7
100
AcDbCircle
 10
-123.8567917904764
 20
92.40247224571269
 30
0.0
 40
2.500000000000082
100
AcDbArc
 50
141.2605754021457
 51
38.73942459785589
  0
ARC
  5
2B4
330
1F
100
AcDbEntity
  8
0
  6
Continuous
 62
     7
100
AcDbCircle
 10
-124.3970087904762
 20
177.5073320447403
 30
0.0
 40
0.5
100
AcDbArc
 50
180.0
 51
270.0
  0
ARC
  5
2B5
330
1F
100
AcDbEntity
  8
0
  6
Continuous
 62
     7
100
AcDbCircle
 10
-139.0970087904763
 20
177.5073320447403
 30
0.0
 40
0.5
100
AcDbArc
 50
180.0
 51
270.0
  0
ARC
  5
2B6
330
1F
100
AcDbEntity
  8
0
  6
Continuous
 62
     7
100
AcDbCircle
 10
-119.1970087904763
 20
177.5073320447403
 30
0.0
 40
0.5
100
AcDbArc
 50
270.0
 51
0.0
  0
ARC
  5
2B7
330
1F
100
AcDbEntity
  8
0
  6
Continuous
 62
     7
100
AcDbCircle
 10
-133.8970087904764
 20
177.5073320447403
 30
0.0
 40
0.5
100
AcDbArc
 50
270.0
 51
0.0
  0
ARC
  5
2B8
102
{ACAD_REACTORS
330
34F
102
}
330
1F
100
AcDbEntity
  8
1
  6
Continuous
 62
     7
100
AcDbCircle
 10
-19.72539976544869
 20
15.7312173120346
 30
0.0
 40
0.2649662124752854
100
AcDbArc
 50
30.00000000001921
 51
180.0
  0
ARC
  5
2B9
102
{ACAD_REACTORS
330
34F
102
}
330
1F
100
AcDbEntity
  8
1
  6
Continuous
 62
     7
100
AcDbCircle
 10
-19.65703264459069
 20
10.84758507263294
 30
0.0
 40
0.3333333333333997
100
AcDbArc
 50
180.0
 51
0.0
  0
ARC
  5
2BA
102
{ACAD_REACTORS
330
34F
102
}
330
1F
100
AcDbEntity
  8
1
  6
Continuous
 62
     7
100
AcDbCircle
 10
-16.99036597792389
 20
9.30826907060182
 30
0.0
 40
0.3333333333333997
100
AcDbArc
 50
180.0
 51
0.0
  0
ARC
  5
2BB
102
{ACAD_REACTORS
330
34F
102
}
330
1F
100
AcDbEntity
  8
1
  6
Continuous
 62
     7
100
AcDbCircle
 10
-16.921998857066
 20
15.7312173120346
 30
0.0
 40
0.2649662124753114
100
AcDbArc
 50
0.0
 51
149.9999999999689
  0
ARC
  5
2BC
102
{ACAD_REACTORS
330
350
102
}
330
1F
100
AcDbEntity
  8
1
  6
Continuous
 62
     7
100
AcDbCircle
 10
-20.99036597792409
 20
14.9225001601674
 30
0.0
 40
0.3333333333333997
100
AcDbArc
 50
0.0
 51
180.0
  0
ARC
  5
2BD
102
{ACAD_REACTORS
330
350
102
}
330
1F
100
AcDbEntity
  8
1
  6
Continuous
 62
     7
100
AcDbCircle
 10
-18.65703264459069
 20
8.73134599367873
 30
0.0
 40
0.3333333333333673
100
AcDbArc
 50
240.0183606311504
 51
60.01836063115359
  0
ARC
  5
2BE
102
{ACAD_REACTORS
330
351
102
}
330
1F
100
AcDbEntity
  8
1
  6
Continuous
 62
     7
100
AcDbCircle
 10
-22.32369931125729
 20
14.15326939093669
 30
0.0
 40
0.3333333333332007
100
AcDbArc
 50
0.0
 51
180.0
  0
ARC
  5
2BF
102
{ACAD_REACTORS
330
351
102
}
330
1F
100
AcDbEntity
  8
1
  6
Continuous
 62
     7
100
AcDbCircle
 10
-22.32369931125729
 20
10.84673060906319
 30
0.0
 40
0.3333333333333997
100
AcDbArc
 50
180.0
 51
0.0
  0
ARC
  5
2C0
102
{ACAD_REACTORS
330
352
102
}
330
1F
100
AcDbEntity
  8
1
  6
Continuous
 62
     7
100
AcDbCircle
 10
-14.32369931125729
 20
14.15326939093669
 30
0.0
 40
0.3333333333333797
100
AcDbArc
 50
240.0183606311517
 51
60.01836063114963
  0
ARC
  5
2C1
102
{ACAD_REACTORS
330
352
102
}
330
1F
100
AcDbEntity
  8
1
  6
Continuous
 62
     7
100
AcDbCircle
 10
-14.32369931125729
 20
12.50000000000003
 30
0.0
 40
0.3333333333334405
100
AcDbArc
 50
270.0
 51
90.0
  0
ARC
  5
2C2
102
{ACAD_REACTORS
330
352
102
}
330
1F
100
AcDbEntity
  8
1
  6
Continuous
 62
     7
100
AcDbCircle
 10
-14.32369931125729
 20
10.84673060906319
 30
0.0
 40
0.3333333333333029
100
AcDbArc
 50
299.9816393688358
 51
119.9816393688398
  0
ARC
  5
2C3
330
1F
100
AcDbEntity
  8
0
  6
Continuous
 62
     7
100
AcDbCircle
 10
-118.5567917904765
 20
99.40247224571269
 30
0.0
 40
2.499999999999936
100
AcDbArc
 50
141.2605754021426
 51
38.73942459785451
  0
CIRCLE
  5
2C4
330
1F
100
AcDbEntity
  8
0
  6
Continuous
 62
     7
100
AcDbCircle
 10
-123.837225790476
 20
239.2123259829881
 30
0.0
 40
2.200000000000102
  0
CIRCLE
  5
2C5
330
1F
100
AcDbEntity
  8
0
  6
Continuous
 62
     7
100
AcDbCircle
 10
-139.737225790476
 20
233.8123259829881
 30
0.0
 40
2.199999999999989
  0
CIRCLE
  5
2C6
330
1F
100
AcDbEntity
  8
0
  6
Continuous
 62
     7
100
AcDbCircle
 10
-139.737225790476
 20
253.112325982988
 30
0.0
 40
1.300000000000097
  0
CIRCLE
  5
2C7
330
1F
100
AcDbEntity
  8
0
  6
Continuous
 62
     7
100
AcDbCircle
 10
-139.737225790476
 20
246.2123259829881
 30
0.0
 40
1.300000000000015
  0
CIRCLE
  5
2C8
330
1F
100
AcDbEntity
  8
0
  6
Continuous
 62
     7
100
AcDbCircle
 10
-139.737225790476
 20
240.7123259829881
 30
0.0
 40
1.300000000000097
  0
CIRCLE
  5
2C9
330
1F
100
AcDbEntity
  8
0
  6
Continuous
 62
     7
100
AcDbCircle
 10
-139.737225790476
 20
233.8123259829881
 30
0.0
 40
1.300000000000097
  0
CIRCLE
  5
2CA
330
1F
100
AcDbEntity
  8
0
  6
Continuous
 62
     7
100
AcDbCircle
 10
-118.5372257904761
 20
253.112325982988
 30
0.0
 40
2.199999999999903
  0
CIRCLE
  5
2CB
330
1F
100
AcDbEntity
  8
0
  6
Continuous
 62
     7
100
AcDbCircle
 10
-118.5372257904761
 20
253.112325982988
 30
0.0
 40
1.299999999999898
  0
CIRCLE
  5
2CC
330
1F
100
AcDbEntity
  8
0
  6
Continuous
 62
     7
100
AcDbCircle
 10
-139.737225790476
 20
240.7123259829881
 30
0.0
 40
2.199999999999989
  0
CIRCLE
  5
2CD
330
1F
100
AcDbEntity
  8
0
  6
Continuous
 62
     7
100
AcDbCircle
 10
-139.737225790476
 20
246.2123259829881
 30
0.0
 40
2.199999999999989
  0
CIRCLE
  5
2CE
330
1F
100
AcDbEntity
  8
0
  6
Continuous
 62
     7
100
AcDbCircle
 10
-139.737225790476
 20
253.112325982988
 30
0.0
 40
2.199999999999989
  0
CIRCLE
  5
2CF
330
1F
100
AcDbEntity
  8
0
  6
Continuous
 62
     7
100
AcDbCircle
 10
-123.837225790476
 20
232.3123259829881
 30
0.0
 40
2.200000000000102
  0
CIRCLE
  5
2D0
330
1F
100
AcDbEntity
  8
0
  6
Continuous
 62
     7
100
AcDbCircle
 10
-123.837225790476
 20
247.7123259829881
 30
0.0
 40
2.200000000000102
  0
CIRCLE
  5
2D1
330
1F
100
AcDbEntity
  8
0
  6
Continuous
 62
     7
100
AcDbCircle
 10
-123.837225790476
 20
254.612325982988
 30
0.0
 40
2.200000000000102
  0
CIRCLE
  5
2D2
330
1F
100
AcDbEntity
  8
0
  6
Continuous
 62
     7
100
AcDbCircle
 10
-123.837225790476
 20
254.612325982988
 30
0.0
 40
1.299999999999997
  0
CIRCLE
  5
2D3
330
1F
100
AcDbEntity
  8
0
  6
Continuous
 62
     7
100
AcDbCircle
 10
-123.837225790476
 20
247.7123259829881
 30
0.0
 40
1.299999999999997
  0
CIRCLE
  5
2D4
330
1F
100
AcDbEntity
  8
0
  6
Continuous
 62
     7
100
AcDbCircle
 10
-123.837225790476
 20
239.2123259829881
 30
0.0
 40
1.299999999999898
  0
CIRCLE
  5
2D5
330
1F
100
AcDbEntity
  8
0
  6
Continuous
 62
     7
100
AcDbCircle
 10
-123.837225790476
 20
232.3123259829881
 30
0.0
 40
1.299999999999973
  0
CIRCLE
  5
2D6
330
1F
100
AcDbEntity
  8
0
  6
Continuous
 62
     7
100
AcDbCircle
 10
-118.5372257904761
 20
240.7123259829881
 30
0.0
 40
2.199999999999903
  0
CIRCLE
  5
2D7
330
1F
100
AcDbEntity
  8
0
  6
Continuous
 62
     7
100
AcDbCircle
 10
-118.5372257904761
 20
233.8123259829881
 30
0.0
 40
2.199999999999903
  0
CIRCLE
  5
2D8
330
1F
100
AcDbEntity
  8
0
  6
Continuous
 62
     7
100
AcDbCircle
 10
-118.5372257904761
 20
233.8123259829881
 30
0.0
 40
1.299999999999898
  0
CIRCLE
  5
2D9
330
1F
100
AcDbEntity
  8
0
  6
Continuous
 62
     7
100
AcDbCircle
 10
-118.5372257904761
 20
240.7123259829881
 30
0.0
 40
1.299999999999883
  0
CIRCLE
  5
2DA
330
1F
100
AcDbEntity
  8
0
  6
Continuous
 62
     7
100
AcDbCircle
 10
-134.437225790476
 20
247.7123259829881
 30
0.0
 40
2.200000000000017
  0
CIRCLE
  5
2DB
330
1F
100
AcDbEntity
  8
0
  6
Continuous
 62
     7
100
AcDbCircle
 10
-134.437225790476
 20
232.3123259829881
 30
0.0
 40
2.200000000000017
  0
CIRCLE
  5
2DC
330
1F
100
AcDbEntity
  8
0
  6
Continuous
 62
     7
100
AcDbCircle
 10
-134.437225790476
 20
232.3123259829881
 30
0.0
 40
1.300000000000011
  0
CIRCLE
  5
2DD
330
1F
100
AcDbEntity
  8
0
  6
Continuous
 62
     7
100
AcDbCircle
 10
-134.437225790476
 20
239.2123259829881
 30
0.0
 40
2.200000000000017
  0
CIRCLE
  5
2DE
330
1F
100
AcDbEntity
  8
0
  6
Continuous
 62
     7
100
AcDbCircle
 10
-134.437225790476
 20
239.2123259829881
 30
0.0
 40
1.300000000000011
  0
CIRCLE
  5
2DF
330
1F
100
AcDbEntity
  8
0
  6
Continuous
 62
     7
100
AcDbCircle
 10
-134.437225790476
 20
254.612325982988
 30
0.0
 40
2.200000000000017
  0
CIRCLE
  5
2E0
330
1F
100
AcDbEntity
  8
0
  6
Continuous
 62
     7
100
AcDbCircle
 10
-134.437225790476
 20
254.612325982988
 30
0.0
 40
1.300000000000011
  0
CIRCLE
  5
2E1
330
1F
100
AcDbEntity
  8
0
  6
Continuous
 62
     7
100
AcDbCircle
 10
-134.437225790476
 20
247.7123259829881
 30
0.0
 40
1.299999999999983
  0
CIRCLE
  5
2E2
330
1F
100
AcDbEntity
  8
0
  6
Continuous
 62
     7
100
AcDbCircle
 10
-129.137225790476
 20
240.7123259829881
 30
0.0
 40
2.199999999999989
  0
CIRCLE
  5
2E3
330
1F
100
AcDbEntity
  8
0
  6
Continuous
 62
     7
100
AcDbCircle
 10
-129.137225790476
 20
246.2123259829881
 30
0.0
 40
2.199999999999989
  0
CIRCLE
  5
2E4
330
1F
100
AcDbEntity
  8
0
  6
Continuous
 62
     7
100
AcDbCircle
 10
-129.137225790476
 20
253.112325982988
 30
0.0
 40
2.199999999999989
  0
CIRCLE
  5
2E5
330
1F
100
AcDbEntity
  8
0
  6
Continuous
 62
     7
100
AcDbCircle
 10
-129.137225790476
 20
253.112325982988
 30
0.0
 40
1.299999999999983
  0
CIRCLE
  5
2E6
330
1F
100
AcDbEntity
  8
0
  6
Continuous
 62
     7
100
AcDbCircle
 10
-129.137225790476
 20
246.2123259829881
 30
0.0
 40
1.300000000000059
  0
CIRCLE
  5
2E7
330
1F
100
AcDbEntity
  8
0
  6
Continuous
 62
     7
100
AcDbCircle
 10
-129.137225790476
 20
233.8123259829881
 30
0.0
 40
2.199999999999989
  0
CIRCLE
  5
2E8
330
1F
100
AcDbEntity
  8
0
  6
Continuous
 62
     7
100
AcDbCircle
 10
-129.137225790476
 20
233.8123259829881
 30
0.0
 40
1.299999999999983
  0
CIRCLE
  5
2E9
330
1F
100
AcDbEntity
  8
0
  6
Continuous
 62
     7
100
AcDbCircle
 10
-129.137225790476
 20
240.7123259829881
 30
0.0
 40
1.30000000000008
  0
CIRCLE
  5
2EA
330
1F
100
AcDbEntity
  8
0
  6
Continuous
 62
     7
100
AcDbCircle
 10
-118.5372257904761
 20
246.2123259829881
 30
0.0
 40
2.199999999999903
  0
CIRCLE
  5
2EB
330
1F
100
AcDbEntity
  8
0
  6
Continuous
 62
     7
100
AcDbCircle
 10
-118.5372257904761
 20
246.2123259829881
 30
0.0
 40
1.299999999999898
  0
CIRCLE
  5
2EC
330
1F
100
AcDbEntity
  8
0
  6
Continuous
 62
     7
100
AcDbCircle
 10
-118.5567917904765
 20
99.40247224571269
 30
0.0
 40
1.300000000000097
  0
CIRCLE
  5
2ED
330
1F
100
AcDbEntity
  8
0
  6
Continuous
 62
     7
100
AcDbCircle
 10
-118.5567917904765
 20
106.3024722457128
 30
0.0
 40
1.300000000000097
  0
CIRCLE
  5
2EE
330
1F
100
AcDbEntity
  8
0
  6
Continuous
 62
     7
100
AcDbCircle
 10
-118.5567917904765
 20
93.90247224571269
 30
0.0
 40
1.300000000000011
  0
CIRCLE
  5
2EF
330
1F
100
AcDbEntity
  8
0
  6
Continuous
 62
     7
100
AcDbCircle
 10
-123.8567917904764
 20
92.40247224571269
 30
0.0
 40
1.300000000000011
  0
CIRCLE
  5
2F0
330
1F
100
AcDbEntity
  8
0
  6
Continuous
 62
     7
100
AcDbCircle
 10
-139.7567917904764
 20
99.40247224571269
 30
0.0
 40
1.300000000000097
  0
CIRCLE
  5
2F1
330
1F
100
AcDbEntity
  8
0
  6
Continuous
 62
     7
100
AcDbCircle
 10
-139.7567917904764
 20
87.0024722457126
 30
0.0
 40
1.300000000000011
  0
CIRCLE
  5
2F2
330
1F
100
AcDbEntity
  8
0
  6
Continuous
 62
     7
100
AcDbCircle
 10
-139.7567917904764
 20
93.90247224571269
 30
0.0
 40
1.300000000000011
  0
CIRCLE
  5
2F3
330
1F
100
AcDbEntity
  8
0
  6
Continuous
 62
     7
100
AcDbCircle
 10
-139.7567917904764
 20
106.3024722457128
 30
0.0
 40
1.300000000000011
  0
CIRCLE
  5
2F4
330
1F
100
AcDbEntity
  8
0
  6
Continuous
 62
     7
100
AcDbCircle
 10
-123.8567917904764
 20
107.8024722457128
 30
0.0
 40
1.299999999999898
  0
CIRCLE
  5
2F5
330
1F
100
AcDbEntity
  8
0
  6
Continuous
 62
     7
100
AcDbCircle
 10
-123.8567917904764
 20
100.9024722457127
 30
0.0
 40
1.299999999999898
  0
CIRCLE
  5
2F6
330
1F
100
AcDbEntity
  8
0
  6
Continuous
 62
     7
100
AcDbCircle
 10
-129.1567917904764
 20
99.40247224571269
 30
0.0
 40
1.299999999999983
  0
CIRCLE
  5
2F7
330
1F
100
AcDbEntity
  8
0
  6
Continuous
 62
     7
100
AcDbCircle
 10
-134.4567917904763
 20
107.8024722457128
 30
0.0
 40
1.300000000000097
  0
CIRCLE
  5
2F8
330
1F
100
AcDbEntity
  8
0
  6
Continuous
 62
     7
100
AcDbCircle
 10
-129.1567917904764
 20
106.3024722457128
 30
0.0
 40
1.299999999999983
  0
CIRCLE
  5
2F9
330
1F
100
AcDbEntity
  8
0
  6
Continuous
 62
     7
100
AcDbCircle
 10
-134.4567917904763
 20
100.9024722457127
 30
0.0
 40
1.300000000000097
  0
CIRCLE
  5
2FA
330
1F
100
AcDbEntity
  8
0
  6
Continuous
 62
     7
100
AcDbCircle
 10
-129.1567917904764
 20
93.90247224571269
 30
0.0
 40
1.299999999999983
  0
CIRCLE
  5
2FB
330
1F
100
AcDbEntity
  8
0
  6
Continuous
 62
     7
100
AcDbCircle
 10
-129.1567917904764
 20
87.0024722457126
 30
0.0
 40
1.299999999999983
  0
CIRCLE
  5
2FC
330
1F
100
AcDbEntity
  8
0
  6
Continuous
 62
     7
100
AcDbCircle
 10
-118.5567917904765
 20
87.0024722457126
 30
0.0
 40
1.300000000000097
  0
CIRCLE
  5
2FD
330
1F
100
AcDbEntity
  8
0
  6
Continuous
 62
     7
100
AcDbCircle
 10
-123.8567917904764
 20
85.5024722457126
 30
0.0
 40
1.300000000000011
  0
CIRCLE
  5
2FE
330
1F
100
AcDbEntity
  8
0
  6
Continuous
 62
     7
100
AcDbCircle
 10
-134.4567917904763
 20
92.40247224571269
 30
0.0
 40
1.299999999999898
  0
CIRCLE
  5
2FF
330
1F
100
AcDbEntity
  8
0
  6
Continuous
 62
     7
100
AcDbCircle
 10
-134.4567917904763
 20
85.5024722457126
 30
0.0
 40
1.299999999999898
  0
ARC
  5
300
102
{ACAD_REACTORS
330
34F
102
}
330
1F
100
AcDbEntity
  8
1
  6
Continuous
 62
     7
100
AcDbCircle
 10
-18.32369931125729
 20
12.83333333333329
 30
0.0
 40
0.1666666666667028
100
AcDbArc
 50
209.9999999999634
 51
330.0000000000195
  0
ARC
  5
301
102
{ACAD_REACTORS
330
350
102
}
330
1F
100
AcDbEntity
  8
1
  6
Continuous
 62
     7
100
AcDbCircle
 10
-20.65703264459069
 20
10.27002114803273
 30
0.0
 40
0.6666666666666003
100
AcDbArc
 50
180.0000000000104
 51
240.0183606311581
  0
ARC
  5
302
330
1F
100
AcDbEntity
  8
1
  6
Continuous
 62
     7
100
AcDbCircle
 10
-26.65684751081719
 20
12.50000000000003
 30
0.0
 40
0.1666666666665943
100
AcDbArc
 50
119.9816393689124
 51
240.0183606311068
  0
ARC
  5
303
330
1F
100
AcDbEntity
  8
1
  6
Continuous
 62
     7
100
AcDbCircle
 10
-9.99055111169739
 20
12.50000000000003
 30
0.0
 40
0.1666666666665794
100
AcDbArc
 50
299.9816393688265
 51
60.01836063115423
  0
ARC
  5
304
102
{ACAD_REACTORS
330
352
102
}
330
1F
100
AcDbEntity
  8
1
  6
Continuous
 62
     7
100
AcDbCircle
 10
-15.65703264459069
 20
14.9225001601674
 30
0.0
 40
0.3333333333333598
100
AcDbArc
 50
60.0183606311539
 51
180.0
  0
ARC
  5
305
102
{ACAD_REACTORS
330
352
102
}
330
1F
100
AcDbEntity
  8
1
  6
Continuous
 62
     7
100
AcDbCircle
 10
-15.65703264459069
 20
10.0774998398326
 30
0.0
 40
0.3333333333332007
100
AcDbArc
 50
180.0
 51
299.9816393688462
  0
ARC
  5
306
330
1F
100
AcDbEntity
  8
1
  6
Continuous
 62
     7
100
AcDbCircle
 10
-131.5979881149409
 20
171.8740256068551
 30
0.0
 40
0.0490206755353427
100
AcDbArc
 50
119.9816393690463
 51
240.0183606309039
  0
ARC
  5
307
330
1F
100
AcDbEntity
  8
1
  6
Continuous
 62
     7
100
AcDbCircle
 10
-126.6960294660114
 20
171.8740256068551
 30
0.0
 40
0.0490206755351269
100
AcDbArc
 50
299.9816393688084
 51
60.01836063124141
  0
TEXT
  5
309
330
1F
100
AcDbEntity
  8
1
 62
     7
100
AcDbText
 10
-129.91085437421
 20
228.515619581096
 30
0.0
 40
1.3
  1
12
 41
0.95
  7
CONVERTER_11
100
AcDbText
  0
TEXT
  5
30A
330
1F
100
AcDbEntity
  8
1
 62
     7
100
AcDbText
 10
-143.561773458239
 20
228.5700641548671
 30
0.0
 40
1.3
  1
20
 41
0.95
  7
CONVERTER_11
100
AcDbText
  0
TEXT
  5
30B
330
1F
100
AcDbEntity
  8
1
 62
     7
100
AcDbText
 10
-143.461834714648
 20
257.0767997542453
 30
0.0
 40
1.3
  1
17
 41
0.95
  7
CONVERTER_11
100
AcDbText
  0
TEXT
  5
30C
330
1F
100
AcDbEntity
  8
1
 62
     7
100
AcDbText
 10
-129.603229739634
 20
257.0720697004381
 30
0.0
 40
1.3
  1
9
 41
0.95
  7
CONVERTER_11
100
AcDbText
  0
TEXT
  5
30D
330
1F
100
AcDbEntity
  8
1
 62
     7
100
AcDbText
 10
-115.4179867116064
 20
228.5955525288931
 30
0.0
 40
1.3
  1
4
 41
0.95
  7
CONVERTER_11
100
AcDbText
  0
TEXT
  5
30E
330
1F
100
AcDbEntity
  8
1
 62
     7
100
AcDbText
 10
-115.1505431372022
 20
256.8430639580066
 30
0.0
 40
1.3
  1
1
 41
0.95
  7
CONVERTER_11
100
AcDbText
  0
MTEXT
  5
310
330
1F
100
AcDbEntity
  8
1
 62
     7
100
AcDbMText
 10
-116.4512338737641
 20
84.35690001456672
 30
0.0
 40
1.3
 41
0.0
 71
     9
 72
     1
  1
1
  7
CONVERTER_12
 11
-1.0
 21
0.0
 31
0.0
 73
     1
 44
1.32052821128451
  0
MTEXT
  5
311
330
1F
100
AcDbEntity
  8
1
 62
     7
100
AcDbMText
 10
-116.672174368355
 20
90.97863811113459
 30
0.0
 40
1.3
 41
0.0
 71
     9
 72
     1
  1
2
  7
CONVERTER_12
 11
-1.0
 21
0.0
 31
0.0
 73
     1
 44
1.32052821128451
  0
MTEXT
  5
312
330
1F
100
AcDbEntity
  8
1
 62
     7
100
AcDbMText
 10
-116.7058305451607
 20
103.6679960810005
 30
0.0
 40
1.3
 41
0.0
 71
     9
 72
     1
  1
3
  7
CONVERTER_12
 11
-1.0
 21
0.0
 31
0.0
 73
     1
 44
1.32052821128451
  0
MTEXT
  5
313
330
1F
100
AcDbEntity
  8
1
 62
     7
100
AcDbMText
 10
-116.6430041322426
 20
110.3495149778097
 30
0.0
 40
1.3
 41
0.0
 71
     9
 72
     1
  1
4
  7
CONVERTER_12
 11
-1.0
 21
0.0
 31
0.0
 73
     1
 44
1.32052821128451
  0
MTEXT
  5
314
330
1F
100
AcDbEntity
  8
1
 62
     7
100
AcDbMText
 10
-121.3476709340959
 20
84.35204583972458
 30
0.0
 40
1.3
 41
0.0
 71
     9
 72
     1
  1
5
  7
CONVERTER_12
 11
-1.0
 21
0.0
 31
0.0
 73
     1
 44
1.32052821128451
  0
MTEXT
  5
315
330
1F
100
AcDbEntity
  8
1
 62
     7
100
AcDbMText
 10
-121.5335704775682
 20
90.97058046291161
 30
0.0
 40
1.3
 41
0.0
 71
     9
 72
     1
  1
6
  7
CONVERTER_12
 11
-1.0
 21
0.0
 31
0.0
 73
     1
 44
1.32052821128451
  0
MTEXT
  5
316
330
1F
100
AcDbEntity
  8
1
 62
     7
100
AcDbMText
 10
-121.522494310358
 20
103.7179534999798
 30
0.0
 40
1.3
 41
0.0
 71
     9
 72
     1
  1
7
  7
CONVERTER_12
 11
-1.0
 21
0.0
 31
0.0
 73
     1
 44
1.32052821128451
  0
MTEXT
  5
317
330
1F
100
AcDbEntity
  8
1
 62
     7
100
AcDbMText
 10
-121.5412213695101
 20
110.3391814313516
 30
0.0
 40
1.3
 41
0.0
 71
     9
 72
     1
  1
8
  7
CONVERTER_12
 11
-1.0
 21
0.0
 31
0.0
 73
     1
 44
1.32052821128451
  0
MTEXT
  5
318
330
1F
100
AcDbEntity
  8
1
 62
     7
100
AcDbMText
 10
-129.5814840859639
 20
83.93141122814691
 30
0.0
 40
1.3
 41
0.0
 71
     9
 72
     1
  1
9
  7
CONVERTER_12
 11
-1.0
 21
0.0
 31
0.0
 73
     1
 44
1.32052821128451
  0
MTEXT
  5
319
330
1F
100
AcDbEntity
  8
1
 62
     7
100
AcDbMText
 10
-129.9025734014629
 20
90.91633788936261
 30
0.0
 40
1.3
 41
0.0
 71
     9
 72
     1
  1
10
  7
CONVERTER_12
 11
-1.0
 21
0.0
 31
0.0
 73
     1
 44
1.32052821128451
  0
MTEXT
  5
31A
330
1F
100
AcDbEntity
  8
1
 62
     7
100
AcDbMText
 10
-129.7217774261879
 20
103.6567727364427
 30
0.0
 40
1.3
 41
0.0
 71
     9
 72
     1
  1
11
  7
CONVERTER_12
 11
-1.0
 21
0.0
 31
0.0
 73
     1
 44
1.32052821128451
  0
MTEXT
  5
31B
330
1F
100
AcDbEntity
  8
1
 62
     7
100
AcDbMText
 10
-129.8881949893125
 20
110.6507969126259
 30
0.0
 40
1.3
 41
0.0
 71
     9
 72
     1
  1
12
  7
CONVERTER_12
 11
-1.0
 21
0.0
 31
0.0
 73
     1
 44
1.32052821128451
  0
MTEXT
  5
31C
330
1F
100
AcDbEntity
  8
1
 62
     7
100
AcDbMText
 10
-138.3315434832042
 20
84.35162062528158
 30
0.0
 40
1.3
 41
0.0
 71
     9
 72
     1
  1
13
  7
CONVERTER_12
 11
-1.0
 21
0.0
 31
0.0
 73
     1
 44
1.32052821128451
  0
MTEXT
  5
31D
330
1F
100
AcDbEntity
  8
1
 62
     7
100
AcDbMText
 10
-138.3580871728235
 20
90.94789198497469
 30
0.0
 40
1.3
 41
0.0
 71
     9
 72
     1
  1
14
  7
CONVERTER_12
 11
-1.0
 21
0.0
 31
0.0
 73
     1
 44
1.32052821128451
  0
MTEXT
  5
31E
330
1F
100
AcDbEntity
  8
1
 62
     7
100
AcDbMText
 10
-138.3165670412624
 20
103.6870369235696
 30
0.0
 40
1.3
 41
0.0
 71
     9
 72
     1
  1
15
  7
CONVERTER_12
 11
-1.0
 21
0.0
 31
0.0
 73
     1
 44
1.32052821128451
  0
MTEXT
  5
31F
330
1F
100
AcDbEntity
  8
1
 62
     7
100
AcDbMText
 10
-138.3140041486662
 20
110.3435706346555
 30
0.0
 40
1.3
 41
0.0
 71
     9
 72
     1
  1
16
  7
CONVERTER_12
 11
-1.0
 21
0.0
 31
0.0
 73
     1
 44
1.32052821128451
  0
MTEXT
  5
320
330
1F
100
AcDbEntity
  8
1
 62
     7
100
AcDbMText
 10
-142.6523921863623
 20
90.95319686164672
 30
0.0
 40
1.3
 41
0.0
 71
     9
 72
     1
  1
18
  7
CONVERTER_12
 11
-1.0
 21
0.0
 31
0.0
 73
     1
 44
1.32052821128451
  0
MTEXT
  5
321
330
1F
100
AcDbEntity
  8
1
 62
     7
100
AcDbMText
 10
-142.6355672721152
 20
84.32847819294071
 30
0.0
 40
1.3
 41
0.0
 71
     9
 72
     1
  1
17
  7
CONVERTER_12
 11
-1.0
 21
0.0
 31
0.0
 73
     1
 44
1.32052821128451
  0
MTEXT
  5
322
330
1F
100
AcDbEntity
  8
1
 62
     7
100
AcDbMText
 10
-142.642367570101
 20
103.6686600354008
 30
0.0
 40
1.3
 41
0.0
 71
     9
 72
     1
  1
19
  7
CONVERTER_12
 11
-1.0
 21
0.0
 31
0.0
 73
     1
 44
1.32052821128451
  0
MTEXT
  5
323
330
1F
100
AcDbEntity
  8
1
 62
     7
100
AcDbMText
 10
-142.7672371067973
 20
110.3300100456946
 30
0.0
 40
1.3
 41
0.0
 71
     9
 72
     1
  1
20
  7
CONVERTER_12
 11
-1.0
 21
0.0
 31
0.0
 73
     1
 44
1.32052821128451
  0
MTEXT
  5
325
330
1F
100
AcDbEntity
  8
1
 62
     7
100
AcDbMText
 10
-194.0000000000001
 20
151.4999999999998
 30
0.0
 40
4.0
 41
0.0
 71
     5
 72
     1
  1
Diritti riservati      All rights reserved
  7
CONVERTER_13
 11
0.0
 21
1.0
 31
0.0
 73
     1
 44
1.32052821128451
  0
MTEXT
  5
326
330
1F
100
AcDbEntity
  8
1
 62
     7
100
AcDbMText
 10
-187.0
 20
16.26063942075601
 30
0.0
 40
3.0
 41
0.0
 71
     4
 72
     1
  1
Date
  7
CONVERTER_13
 73
     1
 44
1.32052821128451
  0
MTEXT
  5
327
330
1F
100
AcDbEntity
  8
1
 62
     7
100
AcDbMText
 10
-176.4
 20
16.26063942075601
 30
0.0
 40
3.0
 41
0.0
 71
     4
 72
     1
  1
16/02/06
  7
CONVERTER_13
 73
     1
 44
1.32052821128451
  0
MTEXT
  5
328
330
1F
100
AcDbEntity
  8
1
 62
     7
100
AcDbMText
 10
-187.0
 20
8.75000000000003
 30
0.0
 40
3.0
 41
0.0
 71
     4
 72
     1
  1
Sign.
  7
CONVERTER_13
 73
     1
 44
1.32052821128451
  0
MTEXT
  5
329
330
1F
100
AcDbEntity
  8
1
 62
     7
100
AcDbMText
 10
-176.4
 20
8.75000000000003
 30
0.0
 40
3.0
 41
0.0
 71
     4
 72
     1
  1
R. Carnelli
  7
CONVERTER_13
 73
     1
 44
1.32052821128451
  0
MTEXT
  5
32A
330
1F
100
AcDbEntity
  8
1
 62
     7
100
AcDbMText
 10
-40.32369931125729
 20
16.26063942075601
 30
0.0
 40
3.0
 41
0.0
 71
     5
 72
     1
  1
Scale
  7
CONVERTER_13
 73
     1
 44
1.32052821128451
  0
MTEXT
  5
32B
330
1F
100
AcDbEntity
  8
1
 62
     7
100
AcDbMText
 10
-40.32369931125729
 20
10.06063942075613
 30
0.0
 40
4.5
 41
0.0
 71
     5
 72
     1
  1
1:1
  7
CONVERTER_13
 73
     1
 44
1.32052821128451
  0
MTEXT
  5
32D
330
1F
100
AcDbEntity
  8
1
 62
     7
100
AcDbMText
 10
-152.7236993112573
 20
12.65304352947
 30
0.0
 40
4.5
 41
0.0
 71
     4
 72
     1
  1
CX 20 CM\Pmale modular , crimp , 20P 16A 500V
  7
CONVERTER_14
 73
     1
 44
0.90036014405762
  0
DIMENSION
  5
338
330
1F
100
AcDbEntity
  8
1
100
AcDbDimension
  2
*D1
 10
-114.4567917904763
 20
194.4932072263986
 30
0.0
 11
-129.1567917904764
 21
198.1432072263986
 31
0.0
 70
    32
  1
<>
 71
     5
 42
-1.0
 53
0.00013888888889
  3
ME10_DIM_10
100
AcDbAlignedDimension
 13
-143.8567917904764
 23
184.5073320447403
 33
0.0
 14
-114.4567917904763
 24
184.5073320447403
 34
0.0
100
AcDbRotatedDimension
  0
DIMENSION
  5
343
330
1F
100
AcDbEntity
  8
1
100
AcDbDimension
  2
*D2
 10
-79.55737180990829
 20
194.5388779313006
 30
0.0
 11
-64.55737180990828
 21
198.0388779313006
 31
0.0
 70
    32
  1
<>
 71
     5
 42
-1.0
 53
0.00013888888889
  3
ME10_DIM_11
100
AcDbAlignedDimension
 13
-49.55737180990823
 23
184.5073320447403
 33
0.0
 14
-79.55737180990832
 24
184.5073320447403
 34
0.0
100
AcDbRotatedDimension
  0
DIMENSION
  5
34E
330
1F
100
AcDbEntity
  8
1
100
AcDbDimension
  2
*D3
 10
-35.70868594021931
 20
184.5073320447403
 30
0.0
 11
-39.20868594021931
 21
165.5073320447403
 31
0.0
 70
    32
  1
<>
 71
     5
 42
-1.0
 53
90.0
  3
ME10_DIM_12
100
AcDbAlignedDimension
 13
-49.55737180990823
 23
146.5073320447403
 33
0.0
 14
-50.35737180990833
 24
184.5073320447403
 34
0.0
 50
90.0
100
AcDbRotatedDimension
  0
HATCH
  5
34F
330
1F
100
AcDbEntity
  8
1
  6
Continuous
 62
     7
100
AcDbHatch
 10
0.0
 20
0.0
 30
0.0
210
0.0
220
0.0
230
1.0
  2
SOLID
 70
     1
 71
     1
 91
        1
 92
        1
 93
       13
 72
     2
 10
-19.72539976544869
 20
15.7312173120346
 40
0.2649662124752854
 50
30.00000000001921
 51
180.0
 73
     1
 72
     1
 10
-19.99036597792409
 20
15.7312173120346
 11
-19.99036597792409
 21
10.84758507263294
 72
     2
 10
-19.65703264459069
 20
10.84758507263294
 40
0.3333333333333997
 50
180.0
 51
360.0
 73
     1
 72
     1
 10
-19.32369931125729
 20
10.84758507263294
 11
-19.32369931125729
 21
14.2320508075688
 72
     1
 10
-19.32369931125729
 20
14.2320508075688
 11
-18.46803687855478
 21
12.75000000000003
 72
     2
 10
-18.32369931125729
 20
12.83333333333329
 40
0.1666666666667028
 50
209.9999999999634
 51
330.0000000000195
 73
     1
 72
     1
 10
-18.1793617439599
 20
12.75000000000003
 11
-17.32369931125729
 21
14.2320508075688
 72
     1
 10
-17.32369931125729
 20
14.2320508075688
 11
-17.32369931125729
 21
9.308269070601824
 72
     2
 10
-16.99036597792389
 20
9.308269070601824
 40
0.3333333333333997
 50
180.0
 51
360.0
 73
     1
 72
     1
 10
-16.65703264459069
 20
9.308269070601824
 11
-16.65703264459069
 21
15.7312173120346
 72
     2
 10
-16.921998857066
 20
15.7312173120346
 40
0.2649662124753114
 50
0.0
 51
149.9999999999689
 73
     1
 72
     1
 10
-17.15146632821399
 20
15.86370041827232
 11
-18.32369931125729
 21
13.83333333333329
 72
     1
 10
-18.32369931125729
 20
13.83333333333329
 11
-19.49593229430059
 21
15.86370041827232
 97
       13
330
20F
330
2BB
330
20E
330
2BA
330
204
330
205
330
300
330
206
330
207
330
2B9
330
20C
330
2B8
330
20D
 75
     0
 76
     1
 98
        1
 10
0.0
 20
0.0
  0
HATCH
  5
350
330
1F
100
AcDbEntity
  8
1
  6
Continuous
 62
     7
100
AcDbHatch
 10
0.0
 20
0.0
 30
0.0
210
0.0
220
0.0
230
1.0
  2
SOLID
 70
     1
 71
     1
 91
        1
 92
        1
 93
        7
 72
     1
 10
-20.65703264459069
 20
14.9225001601674
 11
-20.65703264459069
 21
10.27002114803273
 72
     1
 10
-20.65703264459069
 20
10.27002114803273
 11
-18.4904584934275
 21
9.020074522361625
 72
     2
 10
-18.65703264459069
 20
8.73134599367873
 40
0.3333333333333673
 50
299.9816393688464
 51
479.9816393688495
 73
     0
 72
     1
 10
-18.8236067957539
 20
8.442617464995834
 11
-20.99018094691701
 21
9.692564090666934
 72
     2
 10
-20.65703264459069
 20
10.27002114803273
 40
0.6666666666666003
 50
119.9816393688419
 51
179.9999999999896
 73
     0
 72
     1
 10
-21.32369931125729
 20
10.27002114803261
 11
-21.32369931125729
 21
14.9225001601674
 72
     2
 10
-20.99036597792409
 20
14.9225001601674
 40
0.3333333333333997
 50
180.0
 51
360.0
 73
     0
 97
        7
330
211
330
212
330
2BD
330
213
330
301
330
210
330
2BC
 75
     0
 76
     1
 98
        1
 10
0.0
 20
0.0
  0
HATCH
  5
351
330
1F
100
AcDbEntity
  8
1
  6
Continuous
 62
     7
100
AcDbHatch
 10
0.0
 20
0.0
 30
0.0
210
0.0
220
0.0
230
1.0
  2
SOLID
 70
     1
 71
     1
 91
        1
 92
        1
 93
        4
 72
     1
 10
-21.99036597792409
 20
14.15326939093669
 11
-21.99036597792409
 21
10.84673060906319
 72
     2
 10
-22.32369931125729
 20
10.84673060906319
 40
0.3333333333333997
 50
0.0
 51
180.0
 73
     0
 72
     1
 10
-22.65703264459069
 20
10.84673060906319
 11
-22.65703264459069
 21
14.15326939093669
 72
     2
 10
-22.32369931125729
 20
14.15326939093669
 40
0.3333333333332007
 50
180.0
 51
360.0
 73
     0
 97
        4
330
214
330
2BF
330
215
330
2BE
 75
     0
 76
     1
 98
        1
 10
0.0
 20
0.0
  0
HATCH
  5
352
330
1F
100
AcDbEntity
  8
1
  6
Continuous
 62
     7
100
AcDbHatch
 10
0.0
 20
0.0
 30
0.0
210
0.0
220
0.0
230
1.0
  2
SOLID
 70
     1
 71
     1
 91
        1
 92
        1
 93
       14
 72
     1
 10
-14.4902734624205
 20
13.86454086225378
 11
-15.32369931125729
 21
14.34536346735202
 72
     1
 10
-15.32369931125729
 20
14.34536346735202
 11
-15.32369931125729
 21
12.83333333333329
 72
     1
 10
-15.32369931125729
 20
12.83333333333329
 11
-14.32369931125729
 21
12.83333333333329
 72
     2
 10
-14.32369931125729
 20
12.50000000000003
 40
0.3333333333334405
 50
270.0
 51
450.0
 73
     0
 72
     1
 10
-14.32369931125729
 20
12.16666666666659
 11
-15.32369931125729
 21
12.16666666666659
 72
     1
 10
-15.32369931125729
 20
12.16666666666659
 11
-15.32369931125729
 21
10.65463653264803
 72
     1
 10
-15.32369931125729
 20
10.65463653264803
 11
-14.4902734624205
 21
11.1354591377462
 72
     2
 10
-14.32369931125729
 20
10.84673060906319
 40
0.3333333333333029
 50
240.0183606311602
 51
420.0183606311641
 73
     0
 72
     1
 10
-14.15712516009418
 20
10.55800208038031
 11
-15.4904584934275
 21
9.788771311149702
 72
     2
 10
-15.65703264459069
 20
10.0774998398326
 40
0.3333333333332007
 50
60.01836063115376
 51
180.0
 73
     0
 72
     1
 10
-15.99036597792389
 20
10.0774998398326
 11
-15.99036597792389
 21
14.9225001601674
 72
     2
 10
-15.65703264459069
 20
14.9225001601674
 40
0.3333333333333598
 50
180.0
 51
299.9816393688461
 73
     0
 72
     1
 10
-15.4904584934275
 20
15.2112286888503
 11
-14.15712516009418
 21
14.4419979196194
 72
     2
 10
-14.32369931125729
 20
14.15326939093669
 40
0.3333333333333797
 50
299.9816393688503
 51
479.9816393688483
 73
     0
 97
       14
330
216
330
304
330
203
330
305
330
21D
330
2C2
330
21C
330
21B
330
21A
330
2C1
330
219
330
218
330
217
330
2C0
 75
     0
 76
     1
 98
        1
 10
0.0
 20
0.0
  0
ENDSEC
  0
SECTION
  2
OBJECTS
  0
DICTIONARY
  5
C
330
0
100
AcDbDictionary
281
     1
  3
ACAD_GROUP
350
D
  3
ACAD_LAYOUT
350
1A
  3
ACAD_MATERIAL
350
3B
  3
ACAD_MLEADERSTYLE
350
355
  3
ACAD_MLINESTYLE
350
17
  3
ACAD_PLOTSETTINGS
350
19
  3
ACAD_PLOTSTYLENAME
350
E
  3
ACAD_VISUALSTYLE
350
2A
  3
AcDbVariableDictionary
350
353
  0
DICTIONARY
  5
D
102
{ACAD_REACTORS
330
C
102
}
330
C
100
AcDbDictionary
281
     1
  0
DICTIONARY
  5
1A
102
{ACAD_REACTORS
330
C
102
}
330
C
100
AcDbDictionary
281
     1
  3
Layout1
350
1E
  3
Layout2
350
26
  3
Model
350
22
  0
DICTIONARY
  5
3B
102
{ACAD_REACTORS
330
C
102
}
330
C
100
AcDbDictionary
281
     1
  3
ByBlock
350
3D
  3
ByLayer
350
3C
  3
Global
350
3E
  0
DICTIONARY
  5
355
102
{ACAD_REACTORS
330
C
102
}
330
C
100
AcDbDictionary
281
     1
  0
DICTIONARY
  5
17
102
{ACAD_REACTORS
330
C
102
}
330
C
100
AcDbDictionary
281
     1
  3
Standard
350
18
  0
DICTIONARY
  5
19
102
{ACAD_REACTORS
330
C
102
}
330
C
100
AcDbDictionary
281
     1
  0
ACDBDICTIONARYWDFLT
  5
E
102
{ACAD_REACTORS
330
C
102
}
330
C
100
AcDbDictionary
281
     1
  3
Normal
350
F
100
AcDbDictionaryWithDefault
340
F
  0
DICTIONARY
  5
2A
102
{ACAD_REACTORS
330
C
102
}
330
C
100
AcDbDictionary
281
     1
  3
2dWireframe
350
2F
  3
3D Hidden
350
31
  3
3dWireframe
350
30
  3
Basic
350
32
  3
Brighten
350
36
  3
ColorChange
350
3A
  3
Conceptual
350
34
  3
Dim
350
35
  3
Facepattern
350
39
  3
Flat
350
2B
  3
FlatWithEdges
350
2C
  3
Gouraud
350
2D
  3
GouraudWithEdges
350
2E
  3
Linepattern
350
38
  3
Realistic
350
33
  3
Thicken
350
37
  0
DICTIONARY
  5
353
102
{ACAD_REACTORS
330
C
102
}
330
C
100
AcDbDictionary
281
     1
  3
DIMASSOC
350
356
  3
HIDETEXT
350
357
  0
LAYOUT
  5
1E
102
{ACAD_REACTORS
330
1A
102
}
330
1A
100
AcDbPlotSettings
  1

  2
none_device
  4

  6

 40
0.0
 41
0.0
 42
0.0
 43
0.0
 44
0.0
 45
0.0
 46
0.0
 47
0.0
 48
0.0
 49
0.0
140
0.0
141
0.0
142
1.0
143
1.0
 70
   688
 72
     0
 73
     0
 74
     5
  7

 75
    16
147
1.0
148
0.0
149
0.0
100
AcDbLayout
  1
Layout1
 70
     1
 71
     1
 10
0.0
 20
0.0
 11
12.0
 21
9.0
 12
0.0
 22
0.0
 32
0.0
 14
1.00000000000000E+20
 24
1.00000000000000E+20
 34
1.00000000000000E+20
 15
-1.00000000000000E+20
 25
-1.00000000000000E+20
 35
-1.00000000000000E+20
146
0.0
 13
0.0
 23
0.0
 33
0.0
 16
1.0
 26
0.0
 36
0.0
 17
0.0
 27
1.0
 37
0.0
 76
     0
330
1B
  0
LAYOUT
  5
26
102
{ACAD_REACTORS
330
1A
102
}
330
1A
100
AcDbPlotSettings
  1

  2
none_device
  4

  6

 40
0.0
 41
0.0
 42
0.0
 43
0.0
 44
0.0
 45
0.0
 46
0.0
 47
0.0
 48
0.0
 49
0.0
140
0.0
141
0.0
142
1.0
143
1.0
 70
   688
 72
     0
 73
     0
 74
     5
  7

 75
    16
147
1.0
148
0.0
149
0.0
100
AcDbLayout
  1
Layout2
 70
     1
 71
     2
 10
0.0
 20
0.0
 11
0.0
 21
0.0
 12
0.0
 22
0.0
 32
0.0
 14
0.0
 24
0.0
 34
0.0
 15
0.0
 25
0.0
 35
0.0
146
0.0
 13
0.0
 23
0.0
 33
0.0
 16
1.0
 26
0.0
 36
0.0
 17
0.0
 27
1.0
 37
0.0
 76
     0
330
23
  0
LAYOUT
  5
22
102
{ACAD_REACTORS
330
1A
102
}
330
1A
100
AcDbPlotSettings
  1

  2
none_device
  4

  6

 40
0.0
 41
0.0
 42
0.0
 43
0.0
 44
0.0
 45
0.0
 46
0.0
 47
0.0
 48
0.0
 49
0.0
140
0.0
141
0.0
142
1.0
143
1.0
 70
  1712
 72
     0
 73
     0
 74
     0
  7

 75
     0
147
1.0
148
0.0
149
0.0
100
AcDbLayout
  1
Model
 70
     1
 71
     0
 10
0.0
 20
0.0
 11
12.0
 21
9.0
 12
0.0
 22
0.0
 32
0.0
 14
-210.0000000000001
 24
0.0
 34
0.0
 15
0.0
 25
297.0000000000001
 35
0.0
146
0.0
 13
0.0
 23
0.0
 33
0.0
 16
1.0
 26
0.0
 36
0.0
 17
0.0
 27
1.0
 37
0.0
 76
     0
330
1F
331
29
  0
MATERIAL
  5
3D
102
{ACAD_REACTORS
330
3B
102
}
102
{ACAD_XDICTIONARY
360
37A
102
}
330
3B
100
AcDbMaterial
  1
ByBlock
  0
MATERIAL
  5
3C
102
{ACAD_REACTORS
330
3B
102
}
102
{ACAD_XDICTIONARY
360
378
102
}
330
3B
100
AcDbMaterial
  1
ByLayer
  0
MATERIAL
  5
3E
102
{ACAD_REACTORS
330
3B
102
}
102
{ACAD_XDICTIONARY
360
37C
102
}
330
3B
100
AcDbMaterial
  1
Global
  0
MLINESTYLE
  5
18
102
{ACAD_REACTORS
330
17
102
}
330
17
100
AcDbMlineStyle
  2
Standard
 70
     0
  3

 62
   256
 51
90.0
 52
90.0
 71
     2
 49
0.5
 62
   256
  6
BYLAYER
 49
-0.5
 62
   256
  6
BYLAYER
  0
ACDBPLACEHOLDER
  5
F
102
{ACAD_REACTORS
330
E
102
}
330
E
  0
VISUALSTYLE
  5
2F
102
{ACAD_REACTORS
330
2A
102
}
102
{ACAD_XDICTIONARY
360
360
102
}
330
2A
100
AcDbVisualStyle
  2
2dWireframe
 70
     4
 71
     0
 72
     2
 73
     0
 90
        0
 40
-0.6
 41
-30.0
 62
     5
 63
     7
 74
     1
 91
        4
 64
     7
 65
   257
 75
     1
175
     1
 42
1.0
 92
        0
 66
   257
 43
1.0
 76
     1
 77
     6
 78
     2
 67
     7
 79
     5
170
     0
171
     0
290
     0
174
     0
 93
        1
 44
0.0
173
     0
291
     0
 45
0.0
1001
ACAD
1000
AcDbSavedByObjectVersion
1070
     0
  0
VISUALSTYLE
  5
31
102
{ACAD_REACTORS
330
2A
102
}
102
{ACAD_XDICTIONARY
360
364
102
}
330
2A
100
AcDbVisualStyle
  2
3D Hidden
 70
     6
 71
     1
 72
     2
 73
     2
 90
        0
 40
-0.6
 41
-30.0
 62
     5
 63
     7
 74
     2
 91
        2
 64
     7
 65
   257
 75
     2
175
     1
 42
40.0
 92
        0
 66
   257
 43
1.0
 76
     1
 77
     6
 78
     2
 67
     7
 79
     3
170
     0
171
     0
290
     0
174
     0
 93
        1
 44
0.0
173
     0
291
     0
 45
0.0
1001
ACAD
1000
AcDbSavedByObjectVersion
1070
     0
  0
VISUALSTYLE
  5
30
102
{ACAD_REACTORS
330
2A
102
}
102
{ACAD_XDICTIONARY
360
362
102
}
330
2A
100
AcDbVisualStyle
  2
3dWireframe
 70
     5
 71
     0
 72
     2
 73
     0
 90
        0
 40
-0.6
 41
-30.0
 62
     5
 63
     7
 74
     1
 91
        4
 64
     7
 65
   257
 75
     1
175
     1
 42
1.0
 92
        0
 66
   257
 43
1.0
 76
     1
 77
     6
 78
     2
 67
     7
 79
     5
170
     0
171
     0
290
     0
174
     0
 93
        1
 44
0.0
173
     0
291
     0
 45
0.0
1001
ACAD
1000
AcDbSavedByObjectVersion
1070
     0
  0
VISUALSTYLE
  5
32
102
{ACAD_REACTORS
330
2A
102
}
102
{ACAD_XDICTIONARY
360
366
102
}
330
2A
100
AcDbVisualStyle
  2
Basic
 70
     7
 71
     1
 72
     0
 73
     1
 90
        0
 40
-0.6
 41
-30.0
 62
     5
 63
     7
 74
     0
 91
        4
 64
     7
 65
   257
 75
     1
175
     1
 42
1.0
 92
        8
 66
     7
 43
1.0
 76
     1
 77
     6
 78
     2
 67
     7
 79
     5
170
     0
171
     0
290
     0
174
     0
 93
        1
 44
0.0
173
     0
291
     1
 45
0.0
1001
ACAD
1000
AcDbSavedByObjectVersion
1070
     0
  0
VISUALSTYLE
  5
36
102
{ACAD_REACTORS
330
2A
102
}
102
{ACAD_XDICTIONARY
360
36E
102
}
330
2A
100
AcDbVisualStyle
  2
Brighten
 70
    12
 71
     2
 72
     2
 73
     0
 90
        0
 40
-0.6
 41
-30.0
 62
     5
 63
     7
 74
     1
 91
        4
 64
     7
 65
   257
 75
     1
175
     1
 42
1.0
 92
        8
 66
     7
 43
1.0
 76
     1
 77
     6
 78
     2
 67
     7
 79
     5
170
     0
171
     0
290
     0
174
     0
 93
        1
 44
50.0
173
     0
291
     1
 45
0.0
1001
ACAD
1000
AcDbSavedByObjectVersion
1070
     0
  0
VISUALSTYLE
  5
3A
102
{ACAD_REACTORS
330
2A
102
}
102
{ACAD_XDICTIONARY
360
376
102
}
330
2A
100
AcDbVisualStyle
  2
ColorChange
 70
    16
 71
     2
 72
     2
 73
     3
 90
        0
 40
-0.6
 41
-30.0
 62
     5
 63
     8
 74
     1
 91
        4
 64
     7
 65
   257
 75
     1
175
     1
 42
1.0
 92
        8
 66
     8
 43
1.0
 76
     1
 77
     6
 78
     2
 67
     7
 79
     5
170
     0
171
     0
290
     0
174
     0
 93
        1
 44
0.0
173
     0
291
     1
 45
0.0
1001
ACAD
1000
AcDbSavedByObjectVersion
1070
     0
  0
VISUALSTYLE
  5
34
102
{ACAD_REACTORS
330
2A
102
}
102
{ACAD_XDICTIONARY
360
36A
102
}
330
2A
100
AcDbVisualStyle
  2
Conceptual
 70
     9
 71
     3
 72
     2
 73
     0
 90
        0
 40
-0.6
 41
-30.0
 62
     5
 63
     7
 74
     2
 91
        2
 64
     7
 65
   257
 75
     1
175
     1
 42
40.0
 92
        8
 66
     7
 43
1.0
 76
     1
 77
     6
 78
     2
 67
     7
 79
     3
170
     0
171
     0
290
     0
174
     0
 93
        1
 44
0.0
173
     0
291
     0
 45
0.0
1001
ACAD
1000
AcDbSavedByObjectVersion
1070
     0
  0
VISUALSTYLE
  5
35
102
{ACAD_REACTORS
330
2A
102
}
102
{ACAD_XDICTIONARY
360
36C
102
}
330
2A
100
AcDbVisualStyle
  2
Dim
 70
    11
 71
     2
 72
     2
 73
     0
 90
        0
 40
-0.6
 41
-30.0
 62
     5
 63
     7
 74
     1
 91
        4
 64
     7
 65
   257
 75
     1
175
     1
 42
1.0
 92
        8
 66
     7
 43
1.0
 76
     1
 77
     6
 78
     2
 67
     7
 79
     5
170
     0
171
     0
290
     0
174
     0
 93
        1
 44
-50.0
173
     0
291
     1
 45
0.0
1001
ACAD
1000
AcDbSavedByObjectVersion
1070
     0
  0
VISUALSTYLE
  5
39
102
{ACAD_REACTORS
330
2A
102
}
102
{ACAD_XDICTIONARY
360
374
102
}
330
2A
100
AcDbVisualStyle
  2
Facepattern
 70
    15
 71
     2
 72
     2
 73
     0
 90
        0
 40
-0.6
 41
-30.0
 62
     5
 63
     7
 74
     1
 91
        4
 64
     7
 65
   257
 75
     1
175
     1
 42
1.0
 92
        8
 66
     7
 43
1.0
 76
     1
 77
     6
 78
     2
 67
     7
 79
     5
170
     0
171
     0
290
     0
174
     0
 93
        1
 44
0.0
173
     0
291
     1
 45
0.0
1001
ACAD
1000
AcDbSavedByObjectVersion
1070
     0
  0
VISUALSTYLE
  5
2B
102
{ACAD_REACTORS
330
2A
102
}
102
{ACAD_XDICTIONARY
360
358
102
}
330
2A
100
AcDbVisualStyle
  2
Flat
 70
     0
 71
     2
 72
     1
 73
     1
 90
        2
 40
-0.6
 41
30.0
 62
     5
 63
     7
 74
     0
 91
        4
 64
     7
 65
   257
 75
     1
175
     1
 42
1.0
 92
        8
 66
     7
 43
1.0
 76
     1
 77
     6
 78
     2
 67
     7
 79
     5
170
     0
171
     0
290
     0
174
     0
 93
       13
 44
0.0
173
     0
291
     1
 45
0.0
1001
ACAD
1000
AcDbSavedByObjectVersion
1070
     0
  0
VISUALSTYLE
  5
2C
102
{ACAD_REACTORS
330
2A
102
}
102
{ACAD_XDICTIONARY
360
35A
102
}
330
2A
100
AcDbVisualStyle
  2
FlatWithEdges
 70
     1
 71
     2
 72
     1
 73
     1
 90
        2
 40
-0.6
 41
30.0
 62
     5
 63
     7
 74
     1
 91
        4
 64
     7
 65
   257
 75
     1
175
     1
 42
1.0
 92
        0
 66
   257
 43
1.0
 76
     1
 77
     6
 78
     2
 67
     7
 79
     5
170
     0
171
     0
290
     0
174
     0
 93
       13
 44
0.0
173
     0
291
     1
 45
0.0
1001
ACAD
1000
AcDbSavedByObjectVersion
1070
     0
  0
VISUALSTYLE
  5
2D
102
{ACAD_REACTORS
330
2A
102
}
102
{ACAD_XDICTIONARY
360
35C
102
}
330
2A
100
AcDbVisualStyle
  2
Gouraud
 70
     2
 71
     2
 72
     2
 73
     1
 90
        2
 40
-0.6
 41
30.0
 62
     5
 63
     7
 74
     0
 91
        4
 64
     7
 65
   257
 75
     1
175
     1
 42
1.0
 92
        0
 66
     7
 43
1.0
 76
     1
 77
     6
 78
     2
 67
     7
 79
     5
170
     0
171
     0
290
     0
174
     0
 93
       13
 44
0.0
173
     0
291
     1
 45
0.0
1001
ACAD
1000
AcDbSavedByObjectVersion
1070
     0
  0
VISUALSTYLE
  5
2E
102
{ACAD_REACTORS
330
2A
102
}
102
{ACAD_XDICTIONARY
360
35E
102
}
330
2A
100
AcDbVisualStyle
  2
GouraudWithEdges
 70
     3
 71
     2
 72
     2
 73
     1
 90
        2
 40
-0.6
 41
30.0
 62
     5
 63
     7
 74
     1
 91
        4
 64
     7
 65
   257
 75
     1
175
     1
 42
1.0
 92
        0
 66
   257
 43
1.0
 76
     1
 77
     6
 78
     2
 67
     7
 79
     5
170
     0
171
     0
290
     0
174
     0
 93
       13
 44
0.0
173
     0
291
     1
 45
0.0
1001
ACAD
1000
AcDbSavedByObjectVersion
1070
     0
  0
VISUALSTYLE
  5
38
102
{ACAD_REACTORS
330
2A
102
}
102
{ACAD_XDICTIONARY
360
372
102
}
330
2A
100
AcDbVisualStyle
  2
Linepattern
 70
    14
 71
     2
 72
     2
 73
     0
 90
        0
 40
-0.6
 41
-30.0
 62
     5
 63
     7
 74
     1
 91
        4
 64
     7
 65
   257
 75
     7
175
     7
 42
1.0
 92
        8
 66
     7
 43
1.0
 76
     1
 77
     6
 78
     2
 67
     7
 79
     5
170
     0
171
     0
290
     0
174
     0
 93
        1
 44
0.0
173
     0
291
     1
 45
0.0
1001
ACAD
1000
AcDbSavedByObjectVersion
1070
     0
  0
VISUALSTYLE
  5
33
102
{ACAD_REACTORS
330
2A
102
}
102
{ACAD_XDICTIONARY
360
368
102
}
330
2A
100
AcDbVisualStyle
  2
Realistic
 70
     8
 71
     2
 72
     2
 73
     0
 90
        0
 40
-0.6
 41
-30.0
 62
     5
 63
     7
 74
     1
 91
        0
 64
     7
 65
   257
 75
     1
175
     1
 42
1.0
 92
        8
 66
     8
 43
1.0
 76
     1
 77
     6
 78
     2
 67
     7
 79
     5
170
     0
171
     0
290
     0
174
     0
 93
       13
 44
0.0
173
     0
291
     0
 45
0.0
1001
ACAD
1000
AcDbSavedByObjectVersion
1070
     0
  0
VISUALSTYLE
  5
37
102
{ACAD_REACTORS
330
2A
102
}
102
{ACAD_XDICTIONARY
360
370
102
}
330
2A
100
AcDbVisualStyle
  2
Thicken
 70
    13
 71
     2
 72
     2
 73
     0
 90
        0
 40
-0.6
 41
-30.0
 62
     5
 63
     7
 74
     1
 91
        4
 64
     7
 65
   257
 75
     1
175
     1
 42
1.0
 92
       12
 66
     7
 43
1.0
 76
     1
 77
     6
 78
     2
 67
     7
 79
     5
170
     0
171
     0
290
     0
174
     0
 93
        1
 44
0.0
173
     0
291
     1
 45
0.0
1001
ACAD
1000
AcDbSavedByObjectVersion
1070
     0
  0
DICTIONARYVAR
  5
356
102
{ACAD_REACTORS
330
353
102
}
330
353
100
DictionaryVariables
280
     0
  1
2
  0
DICTIONARYVAR
  5
357
102
{ACAD_REACTORS
330
353
102
}
330
353
100
DictionaryVariables
280
     0
  1
1
  0
DICTIONARY
  5
37A
330
3D
100
AcDbDictionary
280
     1
281
     1
  3
ACAD_XREC_ROUNDTRIP
360
37B
  0
DICTIONARY
  5
378
330
3C
100
AcDbDictionary
280
     1
281
     1
  3
ACAD_XREC_ROUNDTRIP
360
379
  0
DICTIONARY
  5
37C
330
3E
100
AcDbDictionary
280
     1
281
     1
  3
ACAD_XREC_ROUNDTRIP
360
37D
  0
DICTIONARY
  5
360
330
2F
100
AcDbDictionary
280
     1
281
     1
  3
ACAD_XREC_ROUNDTRIP
360
361
  0
DICTIONARY
  5
364
330
31
100
AcDbDictionary
280
     1
281
     1
  3
ACAD_XREC_ROUNDTRIP
360
365
  0
DICTIONARY
  5
362
330
30
100
AcDbDictionary
280
     1
281
     1
  3
ACAD_XREC_ROUNDTRIP
360
363
  0
DICTIONARY
  5
366
330
32
100
AcDbDictionary
280
     1
281
     1
  3
ACAD_XREC_ROUNDTRIP
360
367
  0
DICTIONARY
  5
36E
330
36
100
AcDbDictionary
280
     1
281
     1
  3
ACAD_XREC_ROUNDTRIP
360
36F
  0
DICTIONARY
  5
376
330
3A
100
AcDbDictionary
280
     1
281
     1
  3
ACAD_XREC_ROUNDTRIP
360
377
  0
DICTIONARY
  5
36A
330
34
100
AcDbDictionary
280
     1
281
     1
  3
ACAD_XREC_ROUNDTRIP
360
36B
  0
DICTIONARY
  5
36C
330
35
100
AcDbDictionary
280
     1
281
     1
  3
ACAD_XREC_ROUNDTRIP
360
36D
  0
DICTIONARY
  5
374
330
39
100
AcDbDictionary
280
     1
281
     1
  3
ACAD_XREC_ROUNDTRIP
360
375
  0
DICTIONARY
  5
358
330
2B
100
AcDbDictionary
280
     1
281
     1
  3
ACAD_XREC_ROUNDTRIP
360
359
  0
DICTIONARY
  5
35A
330
2C
100
AcDbDictionary
280
     1
281
     1
  3
ACAD_XREC_ROUNDTRIP
360
35B
  0
DICTIONARY
  5
35C
330
2D
100
AcDbDictionary
280
     1
281
     1
  3
ACAD_XREC_ROUNDTRIP
360
35D
  0
DICTIONARY
  5
35E
330
2E
100
AcDbDictionary
280
     1
281
     1
  3
ACAD_XREC_ROUNDTRIP
360
35F
  0
DICTIONARY
  5
372
330
38
100
AcDbDictionary
280
     1
281
     1
  3
ACAD_XREC_ROUNDTRIP
360
373
  0
DICTIONARY
  5
368
330
33
100
AcDbDictionary
280
     1
281
     1
  3
ACAD_XREC_ROUNDTRIP
360
369
  0
DICTIONARY
  5
370
330
37
100
AcDbDictionary
280
     1
281
     1
  3
ACAD_XREC_ROUNDTRIP
360
371
  0
XRECORD
  5
37B
102
{ACAD_REACTORS
330
37A
102
}
330
37A
100
AcDbXrecord
280
     1
102
MATERIAL
148
0.0
149
0.0
149
0.0
 93
        0
 94
      127
282
     0
 72
     1
 77
     1
171
     1
175
     1
179
     1
273
     0
  0
XRECORD
  5
379
102
{ACAD_REACTORS
330
378
102
}
330
378
100
AcDbXrecord
280
     1
102
MATERIAL
148
0.0
149
0.0
149
0.0
 93
        0
 94
      127
282
     0
 72
     1
 77
     1
171
     1
175
     1
179
     1
273
     0
  0
XRECORD
  5
37D
102
{ACAD_REACTORS
330
37C
102
}
330
37C
100
AcDbXrecord
280
     1
102
MATERIAL
148
0.0
149
0.0
149
0.0
 93
        0
 94
      127
282
     0
 72
     1
 77
     1
171
     1
175
     1
179
     1
273
     0
  0
XRECORD
  5
361
102
{ACAD_REACTORS
330
360
102
}
330
360
100
AcDbXrecord
280
     1
102
RTVSPropertyOp0
 70
     1
102
RTVSPropertyOp1
 70
     1
102
RTVSPropertyOp2
 70
     1
102
RTVSPropertyOp3
 70
     1
102
RTVSPropertyOp4
 70
     1
102
RTVSPropertyOp5
 70
     1
102
RTVSPropertyOp6
 70
     1
102
RTVSPropertyOp7
 70
     1
102
RTVSPropertyOp8
 70
     1
102
RTVSPropertyOp9
 70
     1
102
RTVSPropertyOp10
 70
     1
102
RTVSPropertyOp11
 70
     1
102
RTVSPropertyOp12
 70
     1
102
RTVSPropertyOp13
 70
     1
102
RTVSPropertyOp14
 70
     1
102
RTVSPropertyOp15
 70
     1
102
RTVSPropertyOp16
 70
     1
102
RTVSPropertyOp17
 70
     1
102
RTVSPropertyOp18
 70
     1
102
RTVSPropertyOp19
 70
     1
102
RTVSPropertyOp20
 70
     1
102
RTVSPropertyOp21
 70
     1
102
RTVSPropertyOp22
 70
     1
102
RTVSPropertyOp23
 70
     1
102
RTVSPropertyOp24
 70
     1
102
RTVSPropertyOp25
 70
     1
102
RTVSPropertyOp26
 70
     1
102
RTVSPropertyOp27
 70
     1
102
RTVSPropertyOp28
 70
     1
102
RTVSPropertyOp29
 70
     1
102
RTVSPropertyOp30
 70
     1
102
RTVSPropertyOp31
 70
     1
102
RTVSPropertyOp32
 70
     1
  0
XRECORD
  5
365
102
{ACAD_REACTORS
330
364
102
}
330
364
100
AcDbXrecord
280
     1
102
RTVSPropertyOp0
 70
     1
102
RTVSPropertyOp1
 70
     1
102
RTVSPropertyOp2
 70
     1
102
RTVSPropertyOp3
 70
     1
102
RTVSPropertyOp4
 70
     1
102
RTVSPropertyOp5
 70
     1
102
RTVSPropertyOp6
 70
     1
102
RTVSPropertyOp7
 70
     1
102
RTVSPropertyOp8
 70
     1
102
RTVSPropertyOp9
 70
     1
102
RTVSPropertyOp10
 70
     1
102
RTVSPropertyOp11
 70
     1
102
RTVSPropertyOp12
 70
     1
102
RTVSPropertyOp13
 70
     1
102
RTVSPropertyOp14
 70
     1
102
RTVSPropertyOp15
 70
     1
102
RTVSPropertyOp16
 70
     1
102
RTVSPropertyOp17
 70
     1
102
RTVSPropertyOp18
 70
     1
102
RTVSPropertyOp19
 70
     1
102
RTVSPropertyOp20
 70
     1
102
RTVSPropertyOp21
 70
     1
102
RTVSPropertyOp22
 70
     1
102
RTVSPropertyOp23
 70
     1
102
RTVSPropertyOp24
 70
     1
102
RTVSPropertyOp25
 70
     1
102
RTVSPropertyOp26
 70
     1
102
RTVSPropertyOp27
 70
     1
102
RTVSPropertyOp28
 70
     1
102
RTVSPropertyOp29
 70
     1
102
RTVSPropertyOp30
 70
     1
102
RTVSPropertyOp31
 70
     1
102
RTVSPropertyOp32
 70
     1
  0
XRECORD
  5
363
102
{ACAD_REACTORS
330
362
102
}
330
362
100
AcDbXrecord
280
     1
102
RTVSPropertyOp0
 70
     1
102
RTVSPropertyOp1
 70
     1
102
RTVSPropertyOp2
 70
     1
102
RTVSPropertyOp3
 70
     1
102
RTVSPropertyOp4
 70
     1
102
RTVSPropertyOp5
 70
     1
102
RTVSPropertyOp6
 70
     1
102
RTVSPropertyOp7
 70
     1
102
RTVSPropertyOp8
 70
     1
102
RTVSPropertyOp9
 70
     1
102
RTVSPropertyOp10
 70
     1
102
RTVSPropertyOp11
 70
     1
102
RTVSPropertyOp12
 70
     1
102
RTVSPropertyOp13
 70
     1
102
RTVSPropertyOp14
 70
     1
102
RTVSPropertyOp15
 70
     1
102
RTVSPropertyOp16
 70
     1
102
RTVSPropertyOp17
 70
     1
102
RTVSPropertyOp18
 70
     1
102
RTVSPropertyOp19
 70
     1
102
RTVSPropertyOp20
 70
     1
102
RTVSPropertyOp21
 70
     1
102
RTVSPropertyOp22
 70
     1
102
RTVSPropertyOp23
 70
     1
102
RTVSPropertyOp24
 70
     1
102
RTVSPropertyOp25
 70
     1
102
RTVSPropertyOp26
 70
     1
102
RTVSPropertyOp27
 70
     1
102
RTVSPropertyOp28
 70
     1
102
RTVSPropertyOp29
 70
     1
102
RTVSPropertyOp30
 70
     1
102
RTVSPropertyOp31
 70
     1
102
RTVSPropertyOp32
 70
     1
  0
XRECORD
  5
367
102
{ACAD_REACTORS
330
366
102
}
330
366
100
AcDbXrecord
280
     1
102
RTVSPropertyOp0
 70
     1
102
RTVSPropertyOp1
 70
     1
102
RTVSPropertyOp2
 70
     1
102
RTVSPropertyOp3
 70
     1
102
RTVSPropertyOp4
 70
     1
102
RTVSPropertyOp5
 70
     1
102
RTVSPropertyOp6
 70
     1
102
RTVSPropertyOp7
 70
     1
102
RTVSPropertyOp8
 70
     1
102
RTVSPropertyOp9
 70
     1
102
RTVSPropertyOp10
 70
     1
102
RTVSPropertyOp11
 70
     1
102
RTVSPropertyOp12
 70
     1
102
RTVSPropertyOp13
 70
     1
102
RTVSPropertyOp14
 70
     1
102
RTVSPropertyOp15
 70
     1
102
RTVSPropertyOp16
 70
     1
102
RTVSPropertyOp17
 70
     1
102
RTVSPropertyOp18
 70
     1
102
RTVSPropertyOp19
 70
     1
102
RTVSPropertyOp20
 70
     1
102
RTVSPropertyOp21
 70
     1
102
RTVSPropertyOp22
 70
     1
102
RTVSPropertyOp23
 70
     1
102
RTVSPropertyOp24
 70
     1
102
RTVSPropertyOp25
 70
     1
102
RTVSPropertyOp26
 70
     1
102
RTVSPropertyOp27
 70
     1
102
RTVSPropertyOp28
 70
     1
102
RTVSPropertyOp29
 70
     1
102
RTVSPropertyOp30
 70
     1
102
RTVSPropertyOp31
 70
     1
102
RTVSPropertyOp32
 70
     1
  0
XRECORD
  5
36F
102
{ACAD_REACTORS
330
36E
102
}
330
36E
100
AcDbXrecord
280
     1
102
RTVSPropertyOp0
 70
     1
102
RTVSPropertyOp1
 70
     1
102
RTVSPropertyOp2
 70
     1
102
RTVSPropertyOp3
 70
     1
102
RTVSPropertyOp4
 70
     1
102
RTVSPropertyOp5
 70
     1
102
RTVSPropertyOp6
 70
     1
102
RTVSPropertyOp7
 70
     1
102
RTVSPropertyOp8
 70
     1
102
RTVSPropertyOp9
 70
     1
102
RTVSPropertyOp10
 70
     1
102
RTVSPropertyOp11
 70
     1
102
RTVSPropertyOp12
 70
     1
102
RTVSPropertyOp13
 70
     1
102
RTVSPropertyOp14
 70
     1
102
RTVSPropertyOp15
 70
     1
102
RTVSPropertyOp16
 70
     1
102
RTVSPropertyOp17
 70
     1
102
RTVSPropertyOp18
 70
     1
102
RTVSPropertyOp19
 70
     1
102
RTVSPropertyOp20
 70
     1
102
RTVSPropertyOp21
 70
     1
102
RTVSPropertyOp22
 70
     1
102
RTVSPropertyOp23
 70
     1
102
RTVSPropertyOp24
 70
     1
102
RTVSPropertyOp25
 70
     1
102
RTVSPropertyOp26
 70
     1
102
RTVSPropertyOp27
 70
     1
102
RTVSPropertyOp28
 70
     1
102
RTVSPropertyOp29
 70
     1
102
RTVSPropertyOp30
 70
     1
102
RTVSPropertyOp31
 70
     1
102
RTVSPropertyOp32
 70
     1
  0
XRECORD
  5
377
102
{ACAD_REACTORS
330
376
102
}
330
376
100
AcDbXrecord
280
     1
102
RTVSPropertyOp0
 70
     1
102
RTVSPropertyOp1
 70
     1
102
RTVSPropertyOp2
 70
     1
102
RTVSPropertyOp3
 70
     1
102
RTVSPropertyOp4
 70
     1
102
RTVSPropertyOp5
 70
     1
102
RTVSPropertyOp6
 70
     1
102
RTVSPropertyOp7
 70
     1
102
RTVSPropertyOp8
 70
     1
102
RTVSPropertyOp9
 70
     1
102
RTVSPropertyOp10
 70
     1
102
RTVSPropertyOp11
 70
     1
102
RTVSPropertyOp12
 70
     1
102
RTVSPropertyOp13
 70
     1
102
RTVSPropertyOp14
 70
     1
102
RTVSPropertyOp15
 70
     1
102
RTVSPropertyOp16
 70
     1
102
RTVSPropertyOp17
 70
     1
102
RTVSPropertyOp18
 70
     1
102
RTVSPropertyOp19
 70
     1
102
RTVSPropertyOp20
 70
     1
102
RTVSPropertyOp21
 70
     1
102
RTVSPropertyOp22
 70
     1
102
RTVSPropertyOp23
 70
     1
102
RTVSPropertyOp24
 70
     1
102
RTVSPropertyOp25
 70
     1
102
RTVSPropertyOp26
 70
     1
102
RTVSPropertyOp27
 70
     1
102
RTVSPropertyOp28
 70
     1
102
RTVSPropertyOp29
 70
     1
102
RTVSPropertyOp30
 70
     1
102
RTVSPropertyOp31
 70
     1
102
RTVSPropertyOp32
 70
     1
  0
XRECORD
  5
36B
102
{ACAD_REACTORS
330
36A
102
}
330
36A
100
AcDbXrecord
280
     1
102
RTVSPropertyOp0
 70
     1
102
RTVSPropertyOp1
 70
     1
102
RTVSPropertyOp2
 70
     1
102
RTVSPropertyOp3
 70
     1
102
RTVSPropertyOp4
 70
     1
102
RTVSPropertyOp5
 70
     1
102
RTVSPropertyOp6
 70
     1
102
RTVSPropertyOp7
 70
     1
102
RTVSPropertyOp8
 70
     1
102
RTVSPropertyOp9
 70
     1
102
RTVSPropertyOp10
 70
     1
102
RTVSPropertyOp11
 70
     1
102
RTVSPropertyOp12
 70
     1
102
RTVSPropertyOp13
 70
     1
102
RTVSPropertyOp14
 70
     1
102
RTVSPropertyOp15
 70
     1
102
RTVSPropertyOp16
 70
     1
102
RTVSPropertyOp17
 70
     1
102
RTVSPropertyOp18
 70
     1
102
RTVSPropertyOp19
 70
     1
102
RTVSPropertyOp20
 70
     1
102
RTVSPropertyOp21
 70
     1
102
RTVSPropertyOp22
 70
     1
102
RTVSPropertyOp23
 70
     1
102
RTVSPropertyOp24
 70
     1
102
RTVSPropertyOp25
 70
     1
102
RTVSPropertyOp26
 70
     1
102
RTVSPropertyOp27
 70
     1
102
RTVSPropertyOp28
 70
     1
102
RTVSPropertyOp29
 70
     1
102
RTVSPropertyOp30
 70
     1
102
RTVSPropertyOp31
 70
     1
102
RTVSPropertyOp32
 70
     1
  0
XRECORD
  5
36D
102
{ACAD_REACTORS
330
36C
102
}
330
36C
100
AcDbXrecord
280
     1
102
RTVSPropertyOp0
 70
     1
102
RTVSPropertyOp1
 70
     1
102
RTVSPropertyOp2
 70
     1
102
RTVSPropertyOp3
 70
     1
102
RTVSPropertyOp4
 70
     1
102
RTVSPropertyOp5
 70
     1
102
RTVSPropertyOp6
 70
     1
102
RTVSPropertyOp7
 70
     1
102
RTVSPropertyOp8
 70
     1
102
RTVSPropertyOp9
 70
     1
102
RTVSPropertyOp10
 70
     1
102
RTVSPropertyOp11
 70
     1
102
RTVSPropertyOp12
 70
     1
102
RTVSPropertyOp13
 70
     1
102
RTVSPropertyOp14
 70
     1
102
RTVSPropertyOp15
 70
     1
102
RTVSPropertyOp16
 70
     1
102
RTVSPropertyOp17
 70
     1
102
RTVSPropertyOp18
 70
     1
102
RTVSPropertyOp19
 70
     1
102
RTVSPropertyOp20
 70
     1
102
RTVSPropertyOp21
 70
     1
102
RTVSPropertyOp22
 70
     1
102
RTVSPropertyOp23
 70
     1
102
RTVSPropertyOp24
 70
     1
102
RTVSPropertyOp25
 70
     1
102
RTVSPropertyOp26
 70
     1
102
RTVSPropertyOp27
 70
     1
102
RTVSPropertyOp28
 70
     1
102
RTVSPropertyOp29
 70
     1
102
RTVSPropertyOp30
 70
     1
102
RTVSPropertyOp31
 70
     1
102
RTVSPropertyOp32
 70
     1
  0
XRECORD
  5
375
102
{ACAD_REACTORS
330
374
102
}
330
374
100
AcDbXrecord
280
     1
102
RTVSPropertyOp0
 70
     1
102
RTVSPropertyOp1
 70
     1
102
RTVSPropertyOp2
 70
     1
102
RTVSPropertyOp3
 70
     1
102
RTVSPropertyOp4
 70
     1
102
RTVSPropertyOp5
 70
     1
102
RTVSPropertyOp6
 70
     1
102
RTVSPropertyOp7
 70
     1
102
RTVSPropertyOp8
 70
     1
102
RTVSPropertyOp9
 70
     1
102
RTVSPropertyOp10
 70
     1
102
RTVSPropertyOp11
 70
     1
102
RTVSPropertyOp12
 70
     1
102
RTVSPropertyOp13
 70
     1
102
RTVSPropertyOp14
 70
     1
102
RTVSPropertyOp15
 70
     1
102
RTVSPropertyOp16
 70
     1
102
RTVSPropertyOp17
 70
     1
102
RTVSPropertyOp18
 70
     1
102
RTVSPropertyOp19
 70
     1
102
RTVSPropertyOp20
 70
     1
102
RTVSPropertyOp21
 70
     1
102
RTVSPropertyOp22
 70
     1
102
RTVSPropertyOp23
 70
     1
102
RTVSPropertyOp24
 70
     1
102
RTVSPropertyOp25
 70
     1
102
RTVSPropertyOp26
 70
     1
102
RTVSPropertyOp27
 70
     1
102
RTVSPropertyOp28
 70
     1
102
RTVSPropertyOp29
 70
     1
102
RTVSPropertyOp30
 70
     1
102
RTVSPropertyOp31
 70
     1
102
RTVSPropertyOp32
 70
     1
  0
XRECORD
  5
359
102
{ACAD_REACTORS
330
358
102
}
330
358
100
AcDbXrecord
280
     1
102
RTVSPropertyOp0
 70
     1
102
RTVSPropertyOp1
 70
     1
102
RTVSPropertyOp2
 70
     1
102
RTVSPropertyOp3
 70
     1
102
RTVSPropertyOp4
 70
     1
102
RTVSPropertyOp5
 70
     1
102
RTVSPropertyOp6
 70
     1
102
RTVSPropertyOp7
 70
     1
102
RTVSPropertyOp8
 70
     1
102
RTVSPropertyOp9
 70
     1
102
RTVSPropertyOp10
 70
     1
102
RTVSPropertyOp11
 70
     1
102
RTVSPropertyOp12
 70
     1
102
RTVSPropertyOp13
 70
     1
102
RTVSPropertyOp14
 70
     1
102
RTVSPropertyOp15
 70
     1
102
RTVSPropertyOp16
 70
     1
102
RTVSPropertyOp17
 70
     1
102
RTVSPropertyOp18
 70
     1
102
RTVSPropertyOp19
 70
     1
102
RTVSPropertyOp20
 70
     1
102
RTVSPropertyOp21
 70
     1
102
RTVSPropertyOp22
 70
     1
102
RTVSPropertyOp23
 70
     1
102
RTVSPropertyOp24
 70
     1
102
RTVSPropertyOp25
 70
     1
102
RTVSPropertyOp26
 70
     1
102
RTVSPropertyOp27
 70
     1
102
RTVSPropertyOp28
 70
     1
102
RTVSPropertyOp29
 70
     1
102
RTVSPropertyOp30
 70
     1
102
RTVSPropertyOp31
 70
     1
102
RTVSPropertyOp32
 70
     1
  0
XRECORD
  5
35B
102
{ACAD_REACTORS
330
35A
102
}
330
35A
100
AcDbXrecord
280
     1
102
RTVSPropertyOp0
 70
     1
102
RTVSPropertyOp1
 70
     1
102
RTVSPropertyOp2
 70
     1
102
RTVSPropertyOp3
 70
     1
102
RTVSPropertyOp4
 70
     1
102
RTVSPropertyOp5
 70
     1
102
RTVSPropertyOp6
 70
     1
102
RTVSPropertyOp7
 70
     1
102
RTVSPropertyOp8
 70
     1
102
RTVSPropertyOp9
 70
     1
102
RTVSPropertyOp10
 70
     1
102
RTVSPropertyOp11
 70
     1
102
RTVSPropertyOp12
 70
     1
102
RTVSPropertyOp13
 70
     1
102
RTVSPropertyOp14
 70
     1
102
RTVSPropertyOp15
 70
     1
102
RTVSPropertyOp16
 70
     1
102
RTVSPropertyOp17
 70
     1
102
RTVSPropertyOp18
 70
     1
102
RTVSPropertyOp19
 70
     1
102
RTVSPropertyOp20
 70
     1
102
RTVSPropertyOp21
 70
     1
102
RTVSPropertyOp22
 70
     1
102
RTVSPropertyOp23
 70
     1
102
RTVSPropertyOp24
 70
     1
102
RTVSPropertyOp25
 70
     1
102
RTVSPropertyOp26
 70
     1
102
RTVSPropertyOp27
 70
     1
102
RTVSPropertyOp28
 70
     1
102
RTVSPropertyOp29
 70
     1
102
RTVSPropertyOp30
 70
     1
102
RTVSPropertyOp31
 70
     1
102
RTVSPropertyOp32
 70
     1
  0
XRECORD
  5
35D
102
{ACAD_REACTORS
330
35C
102
}
330
35C
100
AcDbXrecord
280
     1
102
RTVSPropertyOp0
 70
     1
102
RTVSPropertyOp1
 70
     1
102
RTVSPropertyOp2
 70
     1
102
RTVSPropertyOp3
 70
     1
102
RTVSPropertyOp4
 70
     1
102
RTVSPropertyOp5
 70
     1
102
RTVSPropertyOp6
 70
     1
102
RTVSPropertyOp7
 70
     1
102
RTVSPropertyOp8
 70
     1
102
RTVSPropertyOp9
 70
     1
102
RTVSPropertyOp10
 70
     1
102
RTVSPropertyOp11
 70
     1
102
RTVSPropertyOp12
 70
     1
102
RTVSPropertyOp13
 70
     1
102
RTVSPropertyOp14
 70
     1
102
RTVSPropertyOp15
 70
     1
102
RTVSPropertyOp16
 70
     1
102
RTVSPropertyOp17
 70
     1
102
RTVSPropertyOp18
 70
     1
102
RTVSPropertyOp19
 70
     1
102
RTVSPropertyOp20
 70
     1
102
RTVSPropertyOp21
 70
     1
102
RTVSPropertyOp22
 70
     1
102
RTVSPropertyOp23
 70
     1
102
RTVSPropertyOp24
 70
     1
102
RTVSPropertyOp25
 70
     1
102
RTVSPropertyOp26
 70
     1
102
RTVSPropertyOp27
 70
     1
102
RTVSPropertyOp28
 70
     1
102
RTVSPropertyOp29
 70
     1
102
RTVSPropertyOp30
 70
     1
102
RTVSPropertyOp31
 70
     1
102
RTVSPropertyOp32
 70
     1
  0
XRECORD
  5
35F
102
{ACAD_REACTORS
330
35E
102
}
330
35E
100
AcDbXrecord
280
     1
102
RTVSPropertyOp0
 70
     1
102
RTVSPropertyOp1
 70
     1
102
RTVSPropertyOp2
 70
     1
102
RTVSPropertyOp3
 70
     1
102
RTVSPropertyOp4
 70
     1
102
RTVSPropertyOp5
 70
     1
102
RTVSPropertyOp6
 70
     1
102
RTVSPropertyOp7
 70
     1
102
RTVSPropertyOp8
 70
     1
102
RTVSPropertyOp9
 70
     1
102
RTVSPropertyOp10
 70
     1
102
RTVSPropertyOp11
 70
     1
102
RTVSPropertyOp12
 70
     1
102
RTVSPropertyOp13
 70
     1
102
RTVSPropertyOp14
 70
     1
102
RTVSPropertyOp15
 70
     1
102
RTVSPropertyOp16
 70
     1
102
RTVSPropertyOp17
 70
     1
102
RTVSPropertyOp18
 70
     1
102
RTVSPropertyOp19
 70
     1
102
RTVSPropertyOp20
 70
     1
102
RTVSPropertyOp21
 70
     1
102
RTVSPropertyOp22
 70
     1
102
RTVSPropertyOp23
 70
     1
102
RTVSPropertyOp24
 70
     1
102
RTVSPropertyOp25
 70
     1
102
RTVSPropertyOp26
 70
     1
102
RTVSPropertyOp27
 70
     1
102
RTVSPropertyOp28
 70
     1
102
RTVSPropertyOp29
 70
     1
102
RTVSPropertyOp30
 70
     1
102
RTVSPropertyOp31
 70
     1
102
RTVSPropertyOp32
 70
     1
  0
XRECORD
  5
373
102
{ACAD_REACTORS
330
372
102
}
330
372
100
AcDbXrecord
280
     1
102
RTVSPropertyOp0
 70
     1
102
RTVSPropertyOp1
 70
     1
102
RTVSPropertyOp2
 70
     1
102
RTVSPropertyOp3
 70
     1
102
RTVSPropertyOp4
 70
     1
102
RTVSPropertyOp5
 70
     1
102
RTVSPropertyOp6
 70
     1
102
RTVSPropertyOp7
 70
     1
102
RTVSPropertyOp8
 70
     1
102
RTVSPropertyOp9
 70
     1
102
RTVSPropertyOp10
 70
     1
102
RTVSPropertyOp11
 70
     1
102
RTVSPropertyOp12
 70
     1
102
RTVSPropertyOp13
 70
     1
102
RTVSPropertyOp14
 70
     1
102
RTVSPropertyOp15
 70
     1
102
RTVSPropertyOp16
 70
     1
102
RTVSPropertyOp17
 70
     1
102
RTVSPropertyOp18
 70
     1
102
RTVSPropertyOp19
 70
     1
102
RTVSPropertyOp20
 70
     1
102
RTVSPropertyOp21
 70
     1
102
RTVSPropertyOp22
 70
     1
102
RTVSPropertyOp23
 70
     1
102
RTVSPropertyOp24
 70
     1
102
RTVSPropertyOp25
 70
     1
102
RTVSPropertyOp26
 70
     1
102
RTVSPropertyOp27
 70
     1
102
RTVSPropertyOp28
 70
     1
102
RTVSPropertyOp29
 70
     1
102
RTVSPropertyOp30
 70
     1
102
RTVSPropertyOp31
 70
     1
102
RTVSPropertyOp32
 70
     1
  0
XRECORD
  5
369
102
{ACAD_REACTORS
330
368
102
}
330
368
100
AcDbXrecord
280
     1
102
RTVSPropertyOp0
 70
     1
102
RTVSPropertyOp1
 70
     1
102
RTVSPropertyOp2
 70
     1
102
RTVSPropertyOp3
 70
     1
102
RTVSPropertyOp4
 70
     1
102
RTVSPropertyOp5
 70
     1
102
RTVSPropertyOp6
 70
     1
102
RTVSPropertyOp7
 70
     1
102
RTVSPropertyOp8
 70
     1
102
RTVSPropertyOp9
 70
     1
102
RTVSPropertyOp10
 70
     1
102
RTVSPropertyOp11
 70
     1
102
RTVSPropertyOp12
 70
     1
102
RTVSPropertyOp13
 70
     1
102
RTVSPropertyOp14
 70
     1
102
RTVSPropertyOp15
 70
     1
102
RTVSPropertyOp16
 70
     1
102
RTVSPropertyOp17
 70
     1
102
RTVSPropertyOp18
 70
     1
102
RTVSPropertyOp19
 70
     1
102
RTVSPropertyOp20
 70
     1
102
RTVSPropertyOp21
 70
     1
102
RTVSPropertyOp22
 70
     1
102
RTVSPropertyOp23
 70
     1
102
RTVSPropertyOp24
 70
     1
102
RTVSPropertyOp25
 70
     1
102
RTVSPropertyOp26
 70
     1
102
RTVSPropertyOp27
 70
     1
102
RTVSPropertyOp28
 70
     1
102
RTVSPropertyOp29
 70
     1
102
RTVSPropertyOp30
 70
     1
102
RTVSPropertyOp31
 70
     1
102
RTVSPropertyOp32
 70
     1
  0
XRECORD
  5
371
102
{ACAD_REACTORS
330
370
102
}
330
370
100
AcDbXrecord
280
     1
102
RTVSPropertyOp0
 70
     1
102
RTVSPropertyOp1
 70
     1
102
RTVSPropertyOp2
 70
     1
102
RTVSPropertyOp3
 70
     1
102
RTVSPropertyOp4
 70
     1
102
RTVSPropertyOp5
 70
     1
102
RTVSPropertyOp6
 70
     1
102
RTVSPropertyOp7
 70
     1
102
RTVSPropertyOp8
 70
     1
102
RTVSPropertyOp9
 70
     1
102
RTVSPropertyOp10
 70
     1
102
RTVSPropertyOp11
 70
     1
102
RTVSPropertyOp12
 70
     1
102
RTVSPropertyOp13
 70
     1
102
RTVSPropertyOp14
 70
     1
102
RTVSPropertyOp15
 70
     1
102
RTVSPropertyOp16
 70
     1
102
RTVSPropertyOp17
 70
     1
102
RTVSPropertyOp18
 70
     1
102
RTVSPropertyOp19
 70
     1
102
RTVSPropertyOp20
 70
     1
102
RTVSPropertyOp21
 70
     1
102
RTVSPropertyOp22
 70
     1
102
RTVSPropertyOp23
 70
     1
102
RTVSPropertyOp24
 70
     1
102
RTVSPropertyOp25
 70
     1
102
RTVSPropertyOp26
 70
     1
102
RTVSPropertyOp27
 70
     1
102
RTVSPropertyOp28
 70
     1
102
RTVSPropertyOp29
 70
     1
102
RTVSPropertyOp30
 70
     1
102
RTVSPropertyOp31
 70
     1
102
RTVSPropertyOp32
 70
     1
  0
ENDSEC
  0
EOF
